&title=劣等上等[ST]
&artist=Giga / 鏡音リン・レン / Vivid BAD SQUAD「プロジェクトセカイ カラフルステージ! feat. 初音ミク」
&first=0
&des=Friskig↑↓
&wholebpm=160
&shortid=11197
&genre=niconicoボーカロイド
&cabinet=DX
&version=maimai DX Splash
&chartconverter=Neskol
&des_2=
&des_3=
&des_4=
&des_5=Friskig↑↓
&des_6=
&lv_2=4
&lv_3=6
&lv_4=10
&lv_5=13
&lv_6=13
&inote_2=(160){1},
{1},
{1},
{1},
{1},
{1},
{1}4x,
{1}4,
{1}5x,
{1}5,
{2}6,6,
{1}6,
{2}7,7,
{1}7x/8x,
{1}1h[1:1],
{1},
{1}2h[1:1],
{1},
{2}3,3,
{1}3,
{2}4,4,
{1}4/5,
{2}6,6,
{1}6,
{2}7,7,
{1}1x/8x,
{1}8-4[4:3],
{1},
{1}1-5[4:3],
{1},
{1}B6,
{1}B5,
{1}B4,
{1}B3,
{1}C1xh[1:1],
{1},
{1}1b/8b,
{4}1,1,1,,
{4}2,2,2,,
{4}3,3,3,,
{2}4/5,4x/5x,
{4}6,6,6,,
{4}7,7,7,,
{4}8,8,8,,
{2}1/8,1b/8b,
{1}7h[2:1],
{1}6h[2:1],
{1}5h[2:1],
{2}4/5,4x/5x,
{4}3,3,3,,
{4}2,2,2,,
{4}1,1,1,,
{1}1b/8b,
{1}1-4[4:3],
{1},
{1}5-8[4:3],
{1},
{4}1,1,1/2,,
{4}8,8,7/8,,
{4}6,6,5/6,,
{1}4h[2:1]/5h[2:1],
{1}C1hf[4:7],
{1},
{1},
{1},
E
&inote_3=(160){1},
{1},
{1}2>6[1:1],
{1},
{1}7<3[1:1],
{1},
{4}2,2,1,,
{4}7,7,8,,
{4}1,1,8,8,
{1}1x-5[8:3]/8x-4[8:3],
{4}3,3,3/4,,
{1}3-8[8:3],
{4}7,7,7/8,,
{1}7-3[8:3],
{4}2,2,1/2,,
{4}7,7,7/8,,
{4}1,1,8,8,
{4}1x/8x,1x/8x,2x/7x,,
{2}3h[2:1],4,
{4}6,6,5/6,,
{2}3h[2:1],4,
{4}5,5,4/6,,
{4}7,7,7,,
{4}2,2,2,,
{4}8,8,1,1,
{1}1>4[8:3]/8<5[8:3],
{2}B4,B3,
{1}B2,
{2}B5,B6,
{1}B7,
{2}B2,B3,
{1}B4,
{2}B7,B6,
{1}B4/B5,
{1}B3/B6,
{1}C1xh[1:1]/B2/B7,
{1},
{4}1b/2b,1x/2x,3x/8x,,
{4}7/8,7/8,1/6,,
{4}2,2,3,3,
{4}4,4,3/5,,
{4}5b/6b,5/6,4/7,,
{4}3/4,3/4,2/5,,
{4}6,6,7,7,
{4}8,8,1/7,,
{2}B3/B4,B1/B2,
{2}B7/B8,B5/B6,
{2}B3/B4,B1/B2,
{2}B7/B8,B5/B6,
{4}3x,3,3/4,,
{4}6,6,5/6,,
{4}7,7,8,8,
{4}1,1,2/7,,
{2}3h[2:1],4h[2:1],
{2}5h[2:1],6x,
{2}7h[2:1],8h[2:1],
{2}1h[2:1],2x,
{4}3,3,4,,
{4}6,6,5,,
{4}4,4,5,5,
{4}4/5,4/5,3/6,,
{1}C1hf[4:7],
{1},
{1},
{1},
E
&inote_4=(160){1},
{1},
{1}4p2[4:5]/6q8[4:5],
{1},
{1}1q3[4:5]/7p5[4:5],
{4},,,4/6,
{8}5/6,,7,,6,6,4,,
{8}3/4,,2,,3,3,5,,
{8}6,6,3,3,5>7[2:1],,,,
{2},C1/B2/B7,
{8}5/6,5/6,,7/8,,5/6h[8:3],,8,
{4}8,1/7,3/5,2/8,
{8}3/4,3/4,,1/2,,3h[8:3]/4,,1,
{4}1,2/8,4/6,1/7,
{8}8,2,2,,3/4,,5/6,,
{8}7,7,1,,2b/6b,,,,
{16}6xh[16:3],,,5xh[16:3],,,4x,,2xh[16:3],,,3xh[16:3],,,4x,,
{16}6xh[16:3],,,7xh[16:5],,,8x,,8x,,,,1b/6b,,,,
{4}3-1[8:1],8-4[8:1],3,1/8,
{8}7,7,5,5h[8:3],,4,4,,
{4}6-8[8:1],1-5[8:1],6,1/8,
{8}2,2,4h[8:3],,5,5,,3/6,
{4}3/6,1q6[4:1]/2>5[4:1],,,
{4}2/7,5q2[4:1]/6<1[4:1],,,
{8}3,3,5s1[8:3],,,,,,
{4}2>7[8:3],,,C1f,
{4}1h[1:2],B2/E3,,E1/B8,
{4},B2/E3,,B5/E5,
{4}8h[1:2],B7/E7,,B1/E1,
{4},B7/E7,,B4/E5,
{4}2h[1:2],B3/E4,,B1/E1,
{4},B3/E4,,B6/E6,
{4}7h[4:9],E1/B8,,B6/E6,
{4},E1/B8,,B3/E4,
{2}2h[4:3],4h[2:1],
{4}3h[4:1],1h[4:1],8h[4:1],6h[4:1],
{2}C1,4-1[8:1]/5-8[8:1],
{8}2/8,3,1/7,6,2>5[8:1]/8<5[8:1],,,,
{8}4/6,7,3/5,2,4>1[8:1]/6<1[8:1],,,,
{8}2/8,,6,5,3/4,,2,2h[4:1],
{8},4,4>7[4:1]*p6[4:1],,,,,,
{8}1/7,6,2/8,3,1/7v2[8:1]*v4[8:1],,,,
{8}3/5,2,4/6,7,3v6[8:1]*v8[8:1]/5,,,,
{8}1/7,,3/5,,2/8,,4/6,4/6h[4:1],
{8},8,8w4[8:1],,,,2b/6b,,
{4}C1f,1/8,C1f,1/8,
{4}C1f/B5/B6,1/8,C1f/B3/B4,1/8,
{4}C1f/B3/B6,1/8,C1f/B2/B7,1/8,
{4}C1hf[4:1]/B2/B3/B6/B7,,,1b/8b,
{8}4/6,7,3/5,,5-2[8:1]/6-1[8:1],,,,
{8}3/5,2,4/6,,3-8[8:1]/4-7[8:1],,,,
{4}1/8,3/5,1/7,4/6,
{4}2b/8b,,B6/B7/E7,B2/B3/E3,
{4}C1hf[2:1],,,8h[1:1],
{4},7z3[4:1],,,
{4}2h[2:1]/4,1h[4:3],,3z7[4:1],
{4},,4/5,C1,
{8}5/6,5/6,,7/8,,4/6,,2/8,
{4}2/8,4-1[8:1]/5-8[8:1],,2b/7b,
{8}3,3,4,4,5,5,6,6,
{8}7,7,8,8,1,1,2>7[2:1],,
{1}C1xh[2:1],
{4}B3/B6,E3/E7,B2/B7,1b/8b,
{1},
{1},
{1},
E
&inote_5=(160)
{1},
{1},
(160)
{4}4b/5b,1/8z4[3:2],,,
{8},,,3,3,3,3,,
{4}4b/5b,8/1-5[8:1],,7^4[8:1],
{8},,3^8[8:1],3,,6-2[8:1],,6,
{8}3,3,5,5,8-5[8:1]*-3[8:1],8,,,
{8}6,6,4,4,1q5[8:1]*p5[8:1],1,,,
{8}24,3,57,6,1>5[2:1]*<5[2:1],46,1b,,
{4},,5s1[8:1],,s
{8}6/4h[8:1],8,6h[8:1]/5,8,6/4h[8:1],8,5h[8:1]/3,1,
{8}7-4[8:1],7,2,2,8-4[12:1],4-8[12:1],,,
{8}3/5h[8:1],1,3h[8:1]/4,1,3/5h[8:1],1,4h[8:1]/6,8,
{8}2-5[8:1],2,7,7,1-5[12:1],5-1[12:1],,,
{8},47,6,25,3
,57,6,24,3,6,45,36,2-5[8:1]/7,,,
{16}8,7v4[8:1],6,,,,,,
{16}3,2v7[8:1],1,,,,,,
{16}6,5v2[8:1],
{4}4,,4h[4:1],8b,
{8}5h[8:1],4,3-7[8:1]/7h[8:1],2,8-5[8:1],,,,
{8}2v3[8:1],7v6[8:1],,,
{8}4,4,3,2,71,
{16}6,5,7,,3,4,2,,
{8}18,27,36,4V28[4:1],,8V64[4:1],,4h,4h,,
{8}6,1h[8:1],7,7v4[8:1]/8V64[8:1],,7/8,,,
{8}3h[16:1],8h[8:1],2,{4}2v5[8:1]/1V35[8:1],2/1,
{8}6,6,87,6,12,3,48,15,3s7[8:5]/6,45,36,,,,1-5[8:1],,1b,,
{4}2h[1:1],4,,4,6h[1:1],5,,5,3h[1:1],4,,4,7p5[2:1],,,
{8},1,
{4}1h[1:1],2,,2,8h[1:1],6,,6,
{4}2-5[4:1],5,7-4[4:1],4,3>6[4:1],6<3[4:1],,,
{8}3b/6b,,4,5,2b/7b,,4,5,
{4}1b-4[8:1]/8b,1/8-5[8:1],18,
{24}2,3,4,8,7,6,
{4}1h[4:1]/5h[4:1],,4-1[8:1]/8-5[8:1],4b/8b-6[8:1],
{8}4/8v5[8:1],3,8/4,2,87,6,1-3[8:1]/8,2,
{8}5/1v4[8:1],6,1/7,,12,3,87,6,
{8}4/5<8[8:1],,2,3,5/4-1[8:1],,8-4[8:1],7,8/6-3[8:1],,6/2pp6[4:1]*qq6[4:1],,,,,,
{8}4w8[8:1],,4,,1-4[8:1]/8-5[8:1],27,18,,
{8}2-7[8:1]/6-3[8:1],,2/6,,
{8}15,7,48,2,7b-4[8:1],4,7,,2b-5[8:1],5q1[8:1]*<8[8:1],2,,
{8},18,7,26,3,
{8}6,6-1[8:1]/4,4,6b,3,3-8[8:1]/5,5,3b,5,2/5V71[8:1],2,5b,4,7/4V28[8:1],7,4b,7,
{8}4/6-8[8:1],5,6b/3bs7[4:1],,8-4[8:1],,8-3[8:1]*-5[8:1],,8,,
{24}1b,5,1,5,1,5,
{8}1,,8-4[8:1]/2-6[8:1],,,,
{8}5/3-8[8:1],3,3/5-1[8:1],5,5/2-6[8:1],2,2/7-3[8:1],7,
{8}7/4V68[4:1],4,8V24[4:1],,4V68[4:1],,8V24[4:1],,
{8}4<8[4:1],4,8>4[4:1],8,4<8[4:1],4,8q4[4:1]*p4[4:1],8,
{8},,,,4-1[8:1]/5-8[8:1],,4b/5b,,
{4}3h[4:1]/6h[4:1],,8q5[8:1]/4v1[8:1],48,2q7[8:1]/6v3[8:1],26,1z5[8:1]/5z1[8:1],15,
{4}4s8[4:1],8s4[4:1],4w8[8:1],,
{16}5-8[8:1],,8-5[8:1],8,
{8},,3-7[8:1]*z7[8:1],,3b,,
{8}5/1-3[8:1],2,5-7[8:1]/1,6,5/1-3[8:1],2,1/5-7[8:1],6,5/1v3[8:1],2,1/5v7[8:1],6,5/1v3[8:1],2,15,6,
{8}45,36,25,47,16,38,15,37,12,34,56,78,1<6[8:1]/2>5[8:1],,1-5[8:1]/2-6[8:1],,1b/2b,,
{4},1h[24:26]/5h[24:26],,,,
{24},,,62,73,84,1b/5b,E
&inote_6=(160)
{1},
{1},
(160)
{4}4b/5b,1/8z4[3:2],,,
{8},,,3,3,3,3,,
{4}4b/5b,8/1-5[8:1],,7^4[8:1],
{8},,3^8[8:1],3,,6-2[8:1],,6,
{8}3,3,5,5,8-5[8:1]*-3[8:1],8,,,
{8}6,6,4,4,1q5[8:1]*p5[8:1],1,,,
{8}24,3,57,6,1>5[2:1]*<5[2:1],46,1b,,
{4},,5s1[8:1],,s
{8}6/4h[8:1],8,6h[8:1]/5,8,6/4h[8:1],8,5h[8:1]/3,1,
{8}7-4[8:1],7,2,2,8-4[12:1],4-8[12:1],,,
{8}3/5h[8:1],1,3h[8:1]/4,1,3/5h[8:1],1,4h[8:1]/6,8,
{8}2-5[8:1],2,7,7,1-5[12:1],5-1[12:1],,,
{8},47,6,25,3
,57,6,24,3,6,45,36,2-5[8:1]/7,,,
{16}8,7v4[8:1],6,,,,,,
{16}3,2v7[8:1],1,,,,,,
{16}6,5v2[8:1],
{4}4,,4h[4:1],8b,
{8}5h[8:1],4,3-7[8:1]/7h[8:1],2,8-5[8:1],,,,
{8}2v3[8:1],7v6[8:1],,,
{8}4,4,3,2,71,
{16}6,5,7,,3,4,2,,
{8}18,27,36,4V28[4:1],,8V64[4:1],,4h,4h,,
{8}6,1h[8:1],7,7v4[8:1]/8V64[8:1],,7/8,,,
{8}3h[16:1],8h[8:1],2,{4}2v5[8:1]/1V35[8:1],2/1,
{8}6,6,87,6,12,3,48,15,3s7[8:6]/6,45,36,,,,1-5[8:1],,1b,,
{4}2h[1:1],4,,4,6h[1:1],5,,5,3h[1:1],4,,4,7p5[2:1],,,
{8},1,
{4}1h[1:1],2,,2,8h[1:1],6,,6,
{4}2-5[4:1],5,7-4[4:1],4,3>6[4:1],6<3[4:1],,,
{8}3b/6b,,4,5,2b/7b,,4,5,
{4}1b-4[8:1]/8b,1/8-5[8:1],18,
{24}2,3,4,8,7,6,
{4}1h[4:1]/5h[4:1],,4-1[8:1]/8-5[8:1],4b/8b-6[8:1],
{8}4/8v5[8:1],3,8/4,2,87,6,1-3[8:1]/2,3,
{8}5/1v4[8:1],6,1/7,,12,3,87,6,
{8}4/5<8[8:1],,2,3,5/4-1[8:1],,8-4[8:1],7,8/6-2[8:1],,6/2pp6[4:1]*qq6[4:1],,,,,,
{8}4w8[8:1],,4,,1-4[8:1]/8-5[8:1],27,18,,
{8}2-7[8:1]/6-3[8:1],,2/6,,
{8}15,7,48,2,7b-4[8:1],4,7,,2b-5[8:1],5v2[8:1]*<8[8:1],2,,
{8},18,7,26,3,
{8}6,6-1[8:1]/4,4,6b,3,3-8[8:1]/5,5,3b,5,2/5V71[8:1],2,5b,4,7/4V28[8:1],7,4b,7,
{8}4/6-8[8:1],5,6b/3bs7[4:1],,8-4[8:1],,8-3[8:1]*-5[8:1],,8,,
{24}1b,5,1,5,1,5,
{8}1,,8-4[8:1]/2-6[8:1],,,,
{8}5/3-8[8:1],3,3/5-1[8:1],5,5/2-6[8:1],2,2/7-3[8:1],7,
{8}7/4V68[4:1],4,8V24[4:1],,4V68[4:1],,8V24[4:1],,
{8}4<8[4:1],4,8>4[4:1],8,4<8[4:1],4,8q4[4:1]*p4[4:1],8,
{8},,,,4-1[8:1]/5-8[8:1],,4b/5b,,
{4}3h[4:1]/6h[4:1],,8q5[8:1]/4q1[8:1],48,2q7[8:1]/6q3[8:1],26,1z5[8:1]/5z1[8:1],15,
{4}4z8[4:1],8s4[4:1],4w8[8:1],,
{16}5-8[8:1],,8-5[8:1],8,
{8},,3-7[8:1]*z7[8:1],,3b,,
{8}5/1-3[8:1],2,5-7[8:1]/1,6,5/1-3[8:1],2,1/5-7[8:1],6,5/1v3[8:1],2,1/5v7[8:1],6,5/1v3[8:1],2,15,6,
{8}45,36,25,47,16,38,15,37,12,34,56,78,1<6[8:1]/2>5[8:1],,1-5[8:1]/2-6[8:1],,1b/2b,,
{4},1h[24:26]/5h[24:26],,,,
{24},,,62,73,84,1b/5b,e
