&title=悪徳のジャッジメント
&artist=mothy akuno
&first=0.06
&des=玉子豆腐(偽)
&lv_5=13+
&inote_5=(140)
{4}2b,,,,2b,,,,2b,,,,2b,,
{16},,1,2,1,,,,
{8}8<5[4:1],,1,,2,,
1>4[4:1],,8,,7,,
8>3[4:1],,7,,6,,
1<6[4:1],,2,,3,,
3,,4,,6,,5w1[2:1],,5b,,
{4},,
{16}1,,3,4,2b/5<8[8:1],,,,1>4[8:1],,,,1/7,,6h[8:1],,5,,5,,
{16}2,6,3,6,1,7,4,,5bw1[8:1],,,,
{8},,
{16},,1,2-6[0.32##0.2],3,,2b,,,,8,7-3[0.32##0.2],6,,7b,,,,
2,3,4b-8[8:1],,7,6,5b-1[8:1],
{8},,,
{16},8,,3,2,1b-5[8:1]/7,,,,1>4[8:1],,,,1/7,,6h[8:1],,5,,5,,
3,7,2,7,4,6,1,,8bw4[8:1],
{16},,,8b,,,,1-5[8:1],,2,8,1b,,,,8-4[8:1],,1,7,8b/2-6[8:1],,,,8-4[8:1]/2b,,,,6-2[8:1]/8b,,,,8/6b,,,,2w6[2:1],,,,
{4},,,2b,,7b,,
{16}8,,6,5,7b/4>1[8:1],,,,8<5[8:1],,,,8/2,,3h[8:1],,4,,4,,3,,3,,1,8,7,6,1,8,7,6,
{16}4b/8bh[4:1],,,,1,,28,,3/7^4[8:1],,4-8-6[4:1],,3,2,1,,1b,2,3,4,1b,2,3,4,8b,7,6,5,
8b,7,6,5,
7/4-8^2[4:1],,3,,2-6[8:1],,3,,4,,5>1[32:9],,
,,8,,8,7,6,5,8,7,6,5,8/4-8-6-3[8:3],,6b/2b,,
{4},,7-5-2[4:1],,2<7-3<6[2:1]/1-5[2:1],,,,,
{8}1>7[4:1]/8,,1,,8,8,
{16}8,1,2,3,4b<8[8:1],1,2,3,4b,1,2,3,4b/8,7,6,5,4b/8,1,2,3,4b,,
{8}1-3[8:1],8-4[8:1],1<6[8:1],8,1b,
{8},,1/8-4[8:1],7,1-5[8:1]/8,2,1/8-4[8:1],7,1/8,
{8},2,1>7[8:3],8,7,
,8,8w4[8:1],,8b,,2<7-3<6[2:1],,,,,,
{16}12,,8,1,8h[8:1]/1,,1,,,,5,4,5h[8:1]/4,,,,8,1,8h[8:1]/1,,,,27,,1,8,1,8,2b/7b,,,,
{16}1,,3,4,2b/5<8[8:1],,,,1>4[8:1],,,,1/7,,6h[8:1],,5,,5,,6,,6,,8,1,2,3,8,1,2,3,
{16}5b/1bh[4:1],,,,8,,71,,6/2^5[8:1],,5-1-3[4:1],,6,7,8,,8b,7,6,5,8b,7,6,5,1b,2,3,4,
1b,2,3,4,
2/5-1^7[4:1],,6,,7-3[8:1],,6,,5,,4<8[32:9],,
,,1,,1,2,3,4,1,2,3,4,1/5-1-3-6[8:3],,3b/7b,,5/1,,,,,,,,1v3-6[4:1],,,,1b,,,,8b,1,2,3,7b,8,1,2,6b,7,8,1,5b,6,7,8,
{16}4-1[8:1],,,,4/8,,,,7b,6,5,4,1b,2,3,4,8b-3[8:1],7,6,5,8b,7,6,5,
{8}4,4,4,3,3,2,2,1,1,18,27,36,45,45,2b/4b,7b/5b,1b/8b,5b/4b,
{64}1b/8b,2b/7b,3b/6b,5b/4b,,,,,,,,,,,,,
{8},,8<1[2:1],,1,,3,,7,,1>8[2:1],,8,,6,,2,,
{8}2v5[8:1],,1b/2b,,7v4[8:1],,8b/7b,,6v1[8:1],,5b/6b,,3v8[8:1],,4b/3b,,
{4}1-4[8:1]/3,1-6[8:1]/7,1-5[8:1]/3,17,
8-5[8:1]/6,8-3[8:1]/2,8-4[8:1]/6,82,
{4}1w5[8:1],1b,8w4[8:1],8b,
{8}13,13,86,86,
{16}1,8,1,8,1b,,1b,,
{8}2v5[8:1],,1b/2b,,34,35,65,64,
{16}1,8,3,6,4,5,2,7,4,5,1b,,1b,,,,
{8}2v5[8:1],,1b/2b,3,7v4[8:1],,8b/7b,6,1/8-4[8:1],7,1-5[8:1]/8,2,1/8-4[8:1],7,1/8,,
{8}3v8[8:1],,4b/3b,,21,28,78,71,
{16}4,5,2,7,1,8,3,6,1,8,4b,,4b,,,,
{8}5>1[8:1],,5,8,4<8[8:1],,4,1,
{8}1-3[8:1],8-4[8:1],1-5[8:1],8-6[8:1],1>3[8:1],8,1b,,
{16}1,,3,4,2b/5<8[8:1],,,,1>4[8:1],,,,1/7,,6h[8:1],,5,,5,,
{16}2,6,3,6,1,7,4,,5b,,,,
{16},,1,2-6[0.32##0.2],3,,2b,,,,8,7-3[0.32##0.2],6,,7b,,,,
2,3,4b-8[8:1],,7,6,5b-1[8:1],,,,,,,,
{16}4,,2,1,3b/8<5[8:1],,,,4>1[8:1],,,,4/6,,7h[8:1],,8,,8,,
{16}3,7,2,7,4,6,1,,8b,,,,
{16}37,,8b-4[8:1],1,7,2,8,,26,,1b-5[8:1],8,2,7,1,,
{4}7b-3[0.32##0.2],8b-4[0.32##0.2],1b-5[0.32##0.2],2b-6[8:1],
{4},,4w8[8:1],4b,2b,,7b,E
