&title=ワンルームシュガーライフ
&artist=ナユタン星人
&first=0.622
&lv_2=1
&des_2=JLKK
&inote_2=
(180){4},,,,{1}3bx,
3bx,
3bx,
3b,
4,
4,
5,
5,
5/4,
5h[1:1]/4h[1:1],
,6h[1:1]/5h[1:1],
,5h[1:1]/4h[1:1],
,4h[1:1]/3h[1:1],
{2},,4,
4,
{1}4,
{2}3,3,
{1}3,
{2}2,2,
{1}2,
{2}1,1,
{1}1,
B1,
B2,
B3,
B4,
B5,
B6,
B7,
B8,
8h[1:1],
,8,
1x/8x,
8b/1b,
1b/8b,
{2}8,8,
{1}8,
8/7,
8/7,
{2}6,6,
{1}6,
5h[1:1]/4h[1:1],
{2},,5/4,
5/4,
{1}5/4,
4h[1:1]/3h[1:1],
{2},,4,
4,
{1}4/3,
,3h[1:1],
,2h[1:1],
,1h[1:1],
,8h[1:1]/7h[1:1],
,7-3[4:3],
,3h[1:1],
4,
E
&lv_3=6.1
&des_3=JLKK
&inote_3=
(180){4},,,,{1}8bx,
8bx,
{2}1x,1x,
{1}1x,
{4}2,2,{2}2,
{4}3,3,{2}3,
{4}4,5,4,5,
{1}6xh[1:1]/3xh[1:1],
{2},,6/5,
6/5,
6/5,{4}6/5,5/4,
{2}4/3,4/3,
4/3,{4}4/3,4/5,
{2}6/5,6/5,
6/5,{4}6/5,5/4,
{2}4/3,4/3,
4/3,5b/2b,
{1}5h[2:1]/2h[2:1],
6h[2:1]/1h[2:1],
{4}7/8,8/7,{2}7/8q3[4:3],
,,6/5,
7/4,
{1}8h[2:1]/3h[2:1],
{4}2/1,2/1,{2}2/1p6[4:3],
{4},,,,6,
6,{2}6/5,
{4}5,5,{2}5/4,
{4}4,4,{2}4/3,
{1}4h[2:1]/5h[2:1],
{4}3,3,{2}3/4,
{4}2,2,{2}2/1,
{4}1,1,{2}1/8,
{1}8h[2:1]/1h[2:1],
8x<5[2:1],
1x>4[2:1],
{2}B4,B5,
{1}E7f/E3f,
{4}5b,5b,{2}5bx/6bx,
{4}4b,4b,{2}4bx/3bx,
{4}5/3,5/3,3/5,4x-8[2:1],
,,,,5,
5,6,6,
{2}7h[4:1],8h[4:1],
{4}1,1,2,2,
{2}3h[4:1],4h[4:1],
5b/4b,{4}6/3,3/6,
{2}5h[4:1]/4h[4:1],{4}6/3,6/3,
{2}7h[4:1]/2h[4:1],{4}7/2,7/2,
{1}8h[2:1]/1h[2:1],
{2}1b/8b,{4}1/8,8/1,
{2}2h[4:1]/7h[4:1],{4}3,3,
4,4,5,6,
{1}8xh[1:1]/7xh[1:1],
{2},,7/8,
7/8,
7/8,{4}7/8,8/1,
{2}1/2,1/2,
1/2,{4}1/2,1/8,
{2}7/8,7/8,
7/8,{4}7/8,8/1,
{2}1/2,1/2,
1/2,{4}3,4,
{1}5xh[2:1]/6xh[2:3],
4xh[2:3],
7xh[2:1],
4bx/8bx,
E
&lv_4=10.8
&des_4=JLKK
&inote_4=
(180){4},,,,{2}5xh[4:7]/4xh[4:1],
3h[4:1],
2h[4:1],1h[4:1],
{4}1/5,6/2,7/3,8/4pp4b[2:1]*qq4[2:1],
,,,,8/7h[2:3],
1,2,3,
4,5,4,3-7[4:1],
,8<5[4:1],,1pp4[2:1],
,7,8,8/5,
{2}8h[4:1]/4bh[4:1],{8}4/8,4/8,7/3,3/7,
{2}2<8[8:1]/6>4[8:1],2<8[8:1]/6>4[8:1],
2<8[8:1]/6>4[8:1],{8}2/6,6/2,3/7,7/3,
{2}4>2[8:1]/8<6[8:1],4>2[8:1]/8<6[8:1],
4>2[8:1]/8<6[8:1],{8}4/8,8/4,3,3,
{4}2-5[8:1],6,6-1[8:1],2,
2-4[8:1],5,{8}6,6,5,5,
{4}7-2[8:1],1,3-6[8:1],5,
7-4-6-1[2:1],3,{2}2xh[4:1],
{4}2/8,2/8,1,2,
{2}3h[2:1]/4h[4:1],{4}4,5,
5/7,7/5,6/4,5/3,
{1}5pp8b[2:1]/3qq8[2:1],
{4}7/1,5,{8}7/1,7/1,{4}6,
{2}8-3[8:1]/6-3[8:1],{8}4b/2b,,,5x,
{4}5x/3x,{8}4x,4x/6x,,6,5,6h[8:7],
,5x,{4}5x,5,4,
3b>8[4:1],{8}5,5,{4}5<8[4:1],{8}3,3,
{4}3>8[4:1],{8}5,5,{4}5<8[4:1],{8}3,3,
{4}3,2,{8}1,1,8,8,
{1}7p4[2:1],
{8}3,4,{4}2,5/3,6/4,
{8}6,5,{4}7,8,8,
7/1,1/7>2[4:1],{8}3,3,{4}4,
{2}4bh[4:1]/5h[4:1],B6/B5/B4/B3/E5f,
6h[2:1],5h[2:1],
4h[2:1],3h[2:1],
{1}B2,
{8}6x/3x,3x/6x,7x/2x,2x/7x,{2}1x-4[8:1]/8x-5b[8:1],
{4}3b/6b-1[8:1],2,6b/3b-8[8:1],7,
3b/6b-1[8:1],2,6b/3b-8[8:1],7,
6/1,6/1,5/2,4v6[2:1]/3V16b[2:1],
,,,6/4,
2b/7b-4[8:1],3,7b/2b-5[8:1],6,
2b/7b-4[8:1],3,7b/2b-5[8:1],6,
7/4,7/4,8/3,2-6[8:1]/1-5[8:1],
,7-3[8:1]/8-4[8:1],,B5f/B2f,
5xh[4:1],3,{8}6h[4:1],3,{4}3,
5h[4:1],3,{8}6,6,4,4,
,3,,2/4,{4}4/2,{8}3/5,5-1[8:3]/3-7[8:3],
,,,,,,{4}8-4b[8:1],
{8}4b,{16},,,,3x,4x,{4}3xh[4:1],{8}4,5,
,5/4,{16},,6x,5x,{4}6xh[4:1],{8}5,4,
,4/5,,6x/3x,,7x/2x,2x/7x,8x/1xh[8:9],
,Cfh[8:7],,,,,,,,,,,,,,,{4}4/3-1[8:1],
7,4/3-1[8:1],7,
4/3-1[8:1],8,{8}4x/3x,4x/3x,{4}4x/5x,
5/6-8[8:1],2,5/6-8[8:1],2,
5/6-8[8:1],1,{8}6x/5x,6x/5x,{4}5x/4x,
{2}3>1[8:1]/6>4[8:1],3>1[8:1]/6>4[8:1],
3>1[8:1]/6>4[8:1],{8}8x/4x,8x/4x,{4}8x/4x,
{2}6<8[8:1]/3<5[8:1],6<8[8:1]/3<5[8:1],
6<8[8:1]/3<5[8:1],{8}1x/5x,1x/5x,{4}1x/5x,
4/8h[4:7],B3,B5,B2,
B6,E2,B7,C,
7h[4:1],5h[4:1],{16}4,,,4x,,,{8}4x,
{1}5bx/3bx,
E
&lv_5=13.7
&des_5=JLKK
&inote_5=
(180){4},,,,4x/6x<1[2:1],
4,4,4,
3/1<6[2:1],3,3,{8}2,2,
{4}6/2h[4:3],7,8,1>5[8:5]*<5b[8:5],
,,,,5h[4:3],
4,4,B4,
3h[4:3],4,5,B5,
6<8[8:1],5,4>2[8:1],5,
6<8[8:1],{8}5,5,{2}4bh[2:1],
{8}5,5,4,4,{16}6x,5x,{8}7x,{16}3x,4x,{8}2x,
{4}6b>3[8:1],2<7[8:1],6>3[8:1],2<7[8:1],
6>3[8:1],2<7[8:1],{8}6-2[8:1],6,5,5,
{4}4>1[8:1],8<5[8:1],4>1[8:1],8<5[8:1],
4>1[8:1],8<5[8:1],{8}4-8[8:1],4,6,6,
{4}7-4[8:1],3-8[8:1],7-4[8:1],3-8[8:1],
7-4[8:1],3-8[8:1],{8}7,7,6,5,
{4}4>1[4:1],1<6[4:1],6>3[4:1],3>8[4:1],
8-3>2-5b[2:1],B7/E7f/B6,,,5/6h[2:3],
4,{8}3,3,{4}3,
{1}2>5[4:1],
{4}5/3h[4:3],6,{8}7,7,{4}7-1[8:1],
7/2-6[8:1],2/7-3[8:1],7/4-8[8:1],4b,
7/1,8/2,{8}3,4/3,6,6/5,
7,8,{4}7,7h[4:1],B5,
8-6-1-5[4:3],4,3,{8}2,2,
,1,{4}1V75[4:1]*V35[4:1],{16},,,,,,,,4/7,
,,5x,{8}5x,6x,{16}4/7,,,5,{8}5,6,
{16}6/3,,,4,{8}4,5,{16}6/3,,,4,{8}4,5,
{16}5/2,,,4,{8}4,3,{16}3,4,{8}3,2,1,
{2}8-5b[8:1]*-3[8:1],7-5>4b[8:1]/1-3<4[8:1],
{16}3,5,3,5,4,6,4,6,3-8[8:1],4,3,4,{4}3,
{16}1,7,1,7,2,8,2,8,1-5[8:1],8,1,8,{4}1,
{8}6,6,{4}5/6,3/5-1[8:1],3/5pp6b[4:1]*qq4[4:1],
,A4f/A6f,7xh/3xh,7xh/3xh,
{2}8h[2:1],6h[2:1],
4h[2:1],2h[2:1],
{1}Cfh[4:3],
{16}3,5,3,5,2,6,2,6,{4}2h[4:1],7x-4[8:1],
{8}7/1b-5[8:1],8,1/7-4[8:1],8,7/2-5b[8:1],1,2/8-4[8:1],1,
8/2b-5[8:1],1,2/7-3[8:1],8,7/1-5b[8:1],8x,{4}1x/6x,
{8}6<8[8:1]/4>2[8:1],4/6,,,3>1[8:1]/5<7[8:1],3/5,,,{4}5/4-8[8:1],
4b/5-1[8:1],5b/3,2>4[8:1],
{8}2/7b<5[8:1],8,7/2-5[8:1],1,2/7-4b[8:1],8,7/1-5[8:1],2,
1/7b-4[8:1],8,7/2-4[8:1],1,2/6-3b[8:1],7x,{4}6x/1x,
2<7[4:1],7>2[4:1],{8}5,5,6,6,
{4}7-3[8:1],Cf/1-5[8:1],{2}Cf/1-3[8:1]*-7b[8:1],
{4}1b/8b,5/6v1b[8:1],1,5/6-1b[8:1],
2,5/6<1p5b[2:1],{8}4,4,3,2h[4:1],
{16},,,,,,2,1,{4}2,{8}2>4-1[2:1]/8<6-1[2:1],3/7,
,,,,,,{4}7-2b[8:1]/5v2[8:1],
{8}7/5,{16},,,,6,5,{8}7,8,8,1,
,1/8,{16},,3,4,{8}2,1,1,{16}8x,7x,
8x,7x,{8}8x,,7b/5b,,6b/4b,5b/3b,4b/2bh[8:9],
{32}B4,E4,,,,,,,,,,,,,,,B5,B6,,,,,,,,,,,,,,,B8,
E1,,,,,,,,,,,,,,,{8}2/6,7/3,4/8,1/5,
{4}1<6[8:1],5>2[8:1],1<6[8:1],5>2[8:1],
1<6[8:1],5>2[8:1],{8}1,1,8,8,
{4}7-4[8:1],3-8[8:1],7-4[8:1],3-8[8:1],
7-4[8:1],3-8[8:1],{8}7,7,6,6,
{4}5-1[8:1],4-8[8:1],5-1[8:1],4-8[8:1],
5-1[8:1],4-8[8:1],{8}5,5,6,7,
{4}8-4[8:1]/2-4[8:1],2-6[8:1]/8-6[8:1],8-4[8:1]/2-4[8:1],2-6[8:1]/8-6[8:1],
8-4[8:1]/2-4[8:1],8b/2b,{8}1,1,8,7,
6xh[8:3],5,5,4,5xh[8:3],4,4,3,
4xh[8:3],3,3,2,{4}1-5[8:1],1>4[8:1],
1<6[8:1],1,{8}2,{16}1,8,{8}1-4[8:1]*-6[8:1],2/7,
{1}1b,
E
