&title=アンドロメダアンドロメダ
&artist=ナユタン星人
&first=0
&des=AndromedAlien
&lv_5=12+
&inote_5=(142){1},
{4}5/4h[4:3],5,5,5,
{4}4/5h[4:3],4,4,4,
{4}4/5,4/6,4/7,4/8,
{16}8/3,,,,8/2,,,,1,8,1,8,2,7,2,7,
{4}3-8[8:1],7-4[8:1],3-8[8:1],7-4[8:1],
{4}2-5[8:1],6-1[8:1],2-5[8:1],6-1[8:1],
{4}3-8[8:1],7-4[8:1],3-8[8:1],7-4[8:1],
{4}2-5[8:1],6-1[8:1],2-5[8:1],6-1[8:1],
{4}3b-8[8:1],7-4[8:1],2-5[8:1],6-1[8:1],
{4}3-8[8:1],7-4[8:1],2-5[8:1],6-1[8:1],
{4}3-8[8:1],7-4[8:1],2-5[8:1],6-1[8:1],
{4}3-8[8:1],7-4[8:1],2-5[8:1],6,
{8}7,7,5,5,4/5,,1,1,
{8}1^4[8:1],,8^5[8:1],,1,,2,3,
{4}4>8[4:1],8<4[4:1],4>8[4:1],8,
{4}5z1[16:5],3h[4:1],,8/1,
{8}2,2,4,4,4/5,,7,7,
{8}7-3[8:1],,1-5[8:1],,7,,6,7,
{4}8<4[4:1],4>8[4:1],8<4[4:1],4,
{16}1s5[16:5],,,,7h[4:1],,,,,,,,8,1,8,1,
{8}8h[4:1],1,2,3,4,,5,5,
{8}4-8[8:1],4,8-3[8:1]*-5[8:1],,,,4,3,
{4}2pp1[16:5],6pp5[16:5],,,
{4}8V25[4:1]/4V61[4:1],,,1/8,
{8}1h[4:1],8,7,6,5,,4,4,
{8}5-1[8:1],5,1^6[8:1]*^4[8:1],,,,5,6,
{4}7p5[16:5],3p1[16:5],,,
{16}8p3[8:1]/6h[4:1],,,,,,,,1/2,,1/2,,8,1,8,1h[16:11],
{8},8,8,,8,8,,8b/1b,
{16},,1,8,1,8,2,7,2,6,3,6,4,5,4,5h[16:11],
{8},4,4,,4,4,,4b/5b,
{16},,5,4,5,4,6,3,7,2,8,1,8h[4:1],,,,
{16}2bV48[16:3],,4,4,,,,,7V51[16:3],,5,5,,,,,
{8}2,3,7/4,6,2/5,3,7/4,,
{16}2-5[8:1],,,1,2,,8,,7-4[8:1],,,8,7,,1,,
{8}2,3,4/8,7,6^1[8:1]/8-4[8:1],,,,
{16}3V15[16:3],,1,1,,,,,6V84[16:3],,8,8,,,,,
{8}3,2,6/1,7,3/8,2,6/1,,
{16}3-8[8:1],,,4,3,,5,,6-1[8:1],,,5,6,,4,,
{8}3,2,1/8,7,4qq5[4:1]/6pp5[4:1],3,4/6,,
{8},,3-1[8:1]/6,5,4,,3/6-8[8:1],4,
{16}5,,,,3qq8[8:3]/6,,5,,4,,,4,,,4,,
{8}5/1,,6-8[8:1]/3,4,5,,6/3-1[8:1],5,
{16}4,,,,6pp1[8:3]/3,,4,,5,,,5,,,5,,
{8}4/8,,3-1[8:1]/6,5,4,,3/6-8[8:1],4,
{16}5,,,,3qq8[8:3]/6,,5,,4,,,4,,,4,,
{8}5/1,,6-8[8:1]/3,4,5,,6/3-1[8:1],5,
{16}4,,,,6pp1[8:3]/3,,4,,5,,,5,,,5,,
{4}8/4,1/6,8/3,1/6,
{4}8/3,1/6,8/3,1/6,
{4}8/4,1/5,8/4,1/5,
{4}8/4,1/5,8/4,1/5,
{8}8/3,7,1/6,2,8/3,7,1/6,2,
{8}8/3,7,1/6,2,8/3,7,1/6,2,
{8}8/4,6,1/5,2,8/4,7,1/5,3,
{8}8/4,6,1/5,2,8/4,7,1/5,3,
{8}4h[8:5],5,5,,5,5,,5b/4b,
{16},,4,5,4,5,3,6,3,7,2,7,1,8,1,8h[16:11],
{8},1,1,,1,1,,1b/8b,
{16},,8,1,8,1,7,2,6,3,5,4,5h[4:1],,,,
{16}2bV48[16:3],,4,3h[16:3],,,,,3V15[16:3],,1,2h[16:3],,,,,
{8}3,4,7/5,6,4/3,2,1/8,,
{16}7V51[16:3],,,8,7,,2,,2q6[8:1],,,1,2,,8,,
{8}7,6,4/5,3,2-5[8:1]/4-8[8:1],,,,
{16}7V51[16:3],,5,6h[16:3],,,,,6V84[16:3],,8,7h[16:3],,,,,
{8}6,5,2/4,3,5/6,7,8/1,,
{16}3V15[16:3],,,4,3,,6,,6^1[8:1],,,5,6,,4,,
{8}3,2,1/8,7/2,6pp4[16:5]/3qq5[16:5],5/4,6b/3b,,
{8},,6-1[8:1]/3,4,5,,6/3-8[8:1],5,
{16}4,,,,6pp2[8:3]/3,,4,,5,,,5,,,5,,
{8}1/5,,3-8[8:1]/6,5,4,,3/6-1[8:1],4,
{16}5,,,,3qq7[8:3]/6,,5,,4,,,4,,,4,,
{8}4/8,,6-1[8:1]/3,4,5,,6/3-8[8:1],5,
{16}4,,,,6pp2[8:3]/3,,4,,5,,,5,,,5,,
{8}1/5,,3-8[8:1]/6,5,4,,3/6-1[8:1],4,
{16}5,,,,3qq7[8:3]/6,,5,,4,,,4,,,4,,
{4}8-3[8:1]/4,4-7[8:1],8-3[8:1],4-7[8:1],
{4}1-6[8:1],5-2[8:1],1-6[8:1],5-2[8:1],
{4}8-3[8:1],4-7[8:1],8-3[8:1],4-7[8:1],
{4}1-6[8:1],5-2[8:1],1-6[8:1],5-2[8:1],
{4}8b-3[8:1],4-7[8:1],1-6[8:1],5-2[8:1],
{4}8-3[8:1],4-7[8:1],1-6[8:1],5-2[8:1],
{4}8-3[8:1],4-7[8:1],1-6[8:1],5-2[8:1],
{4}8-3[8:1],4-7[8:1],1-5[8:1],8,
{4}4b/7b,2b/5b,3b/8b,1b/6b,
{4}4b/8b,1b/5b,3b/7b,2bv5[8:1]/6b-1[8:1],
{1},
E
