&title=Viyella’s Melancholy
&artist=Laur
&first=0
&lv_5=14+
&des_5=Rhythlame
&inote_5=
(220){4},{16},,,,,,,,,,,,4b/5b,
6x/3x,{8}2x/7xh[8:3],,,{4}2h[4:1],6h[4:1],
1h[4:1],7h[4:1],3h[4:1],5h[4:1],
2h[4:1],8h[4:1],6h[4:1],5h[4:1],
2h[4:1],1h[4:1],8h[4:1],7h[2:1],
{2}6h[2:1],{4}8h[4:1],5h[4:1],
4h[4:1],2h[4:1],8h[4:1],6h[4:1],
4,5/3h[8:1],8,1/7h[8:1],
{2}6h[2:1]/2h[4:1],{4}3,8-5[8:1]/4v1b[8:1],
4/8,{8}6,2,7,3,8,4,
{4}1>4[4:1],4<7[4:1],7,3v6[16:3],
3/7,{8}8,5,7,4,6<1[16:3],3,
{4}6>3[16:3],6-2[16:3],6,{8}4,3,
2/6,6,3,3,7,7,4,4,
7/3,7,2,2,6,6,1,1,
{16}7,2,7,2,6,1,6,1,5,2,5,2,4,3,4,3,
{4}5-1[8:1],5x/2-5[8:1],2x/7p4[8:3],2/7x,
1-5b[8:1],1b-6b[8:1],1b/4b-8b[8:1],4b,
{16}6,5,{8}6,{16}4,5,{8}4,{16}6,5,6,4,{4}E8f,
6/1-4[8:1],1bV75[4:1],{2}5bv8b[16:3]/1b-4b[8:1],
{16}3x,2x,{8}1x,{16}7,6,{8}5,{16}2,4,3,4,{4}5/2-6b[8:1]*-5b[8:1],
2,{8}7b/1b,7b/1b,{4}7b/1b,6b/2b,
{16}3,4,{8}3,{16}5,4,{8}5,{16}3,4,3,5,{4}E2f,
{8}6b/5b,7b/4b,{4}3b/8b,{16}2b,1b,3b,8b,2b,1b,3b,8b,
{2}2bpp8[8:3],7-4b[8:1],
{8}3x,3x,{4}2/7-3[8:1],4/7-5[8:1],2/7-3[8:1],
{8}4/7-5[8:1],4,{4}2/7,{32}2bx/E2,B1,B8,E8,,,,,6bx/E6,B5,B4,E4,,,,,{4}1b-5[8:1],
4/1-3[8:1],6/1-5[8:1],4/1,
{8}7/8,6/1,2/5,4/3,4b/2,3b/5,{4}6b/4,
8b/7b,1b/2b,6b/5b,4b/3b,
6b/8b,1b/3b,7b/5b,{8}4b/2b,4b/2b,
{4}4b/1b,8b<6[6:1]*v5[6:1],8b>2[6:1]*v3[6:1],8b,
{8}5xh[8:1],4xh[8:1],6xh[8:1],3xh[8:1],{16}8,7,6,5,8,1,2,3,
{2}4/6h[4:3],7h[2:1],
{16}6xh,5xh,4xh,3xh,7xh,8xh,1xh,2xh,6xh,5xh,4xh,3xh,{4}C,
{16}2,4,3,5,4,6,5,7,4,6,3,5,2,4,1,5,
8b,7,6,5,7b,6,5,4,6b,5,4,3,{4}2/5b,
{16}6,5,7,4,6,5,6,5,7,4,8,3,7,2,6,1,
5b,4,3,2,1/5b,8,7,6,5/1b,4,3,2,{4}1/5b,
{16}6,5,6,5h[16:3],,,,,7,8,7,8h[16:3],,,,,2,
1,2,1h[16:3],,,,,3,4,3,4,3,4,3,4,
{12}2h,5h,3h,7h,4h,6h,1h,5h,3h,8h,4h,6h,
{4}5w1[8:1],{24}B5f,C/B1/B8/B2,,,,,,,,,,,,,,,,,{4}7b/3b,
{8}3-1<8b[8:1]/7-5>4[8:1],3/7,{16},,,,5x,6x,{8}7x,
{16}4,3,{8}2,{4}2x/7p4[8:3],{2}7/2-5b[8:1],
3b-8[8:1]/6b-1[8:1],{4}5b,{16}3,4,{8}2,
{16}6,5,{8}7,{16}3,4,{8}2,{16}6,5,7,4,5,4,5,4,
{2}3b-1[8:1]/6b-8[8:1],{4}4b-8b[8:1],7b-4b[8:1],
1b-5b[8:1],8b<5b[8:1],3b,{8}2b,2,
1b/3,2b/8,7b/1,6/8b,5/2b,3/6b,7/4b,5/8b,
{16}1b,2,3,4,5,6,7,8,{24}4b,3,2,1,8,7,6,5,4,3,2,1,
{1}6b-3-8[8:3]/8b-5-2b[8:3],
{24}8h,8h,8h,8h,8h,8h,8h,8h,8h,8h,8h,8h,8h,8h,8h,8h,8h,8h,{4}8bw4b[8:1],
{24}B8f/8bx<1>2>3<4<5<6<7>8[4:15],C,{12}B4/B5/B3,{1},,{16},,,{48},{8}B5,
,B4,,,,,,,,,,,{1}Ch[1:1],
{8},,,,,,E7,E3,
{4}E5,C,{8}E2,B1,B8,E8,
,,{4}C,{8}E6,B5,B4,E4,
,,{4}C,{8}E8,E2,{4}E1,
,C,{8}E3,E7,{4}E5,
E8/C,E2,{8}E7,B6,B5,E5,
,,{4}E2/C,E5/B3,B8/E7,
{24}B2,E3,,,,,{8}E7,E5,,B6,B2,B8,
{4}B4,{16}E7,E6,E5,E4,{4}E3,C,
5h[2:1],4,4h[2:1],3,
3h[2:1],{16}A2,D2,A1,D1,A8,D8,A7,D7,{8}4,5,
{4}3/6h[2:1],B2,{8}5,4,{4}3/5,
{2}4h[4:1]/E8,5h[4:1]/E2,
{8}6/4,,,7/3,,,{4}8/2,
1h[4:1],{8}8,7,{4}6h[4:1],4,
{8}5h[8:1]/E3,,,6h[8:1]/E2,,,{4}7h[8:1]/E1,
2/6h[8:1],4/3h[8:1],4/6h[8:1],2h[8:1]/5h[8:1],
{6}7bh[12:1]/1bh[12:1],2bh[12:1]/8bh[12:1],1bh[12:1]/3b-6-4b[4:1],3bh[12:1]/B7f,,,8bh[12:1]/1bh[12:1],
7bh[12:1]/2bh[12:1],6b>3b[16:3]/3b>8b[16:3],6bh[12:1]/3bh[12:1],,,6bh[12:1]/4bh[12:1],
3bh[12:1]/7bh[12:1],5bh[12:1]/4bh[12:1],1bh[12:1]/6bh[12:1],7bh[12:1]/4bh[12:1],2bh[12:1]/5bh[12:1],
7bh[12:1]/E4,2bh[12:1]/E6,7b>2b[16:3]/3b<6b[16:3],3bh[12:1]/7bh[12:1],,,8bh[12:1]/2bh[12:1],
7bh[12:1]/1bh[12:1],8bh[12:1]/6b-3-5b[4:1],6bh[12:1]/B2f,,,8bh[12:1]/1bh[12:1],
2bh[12:1]/7bh[12:1],6bh[12:1]/3b<6b[16:3],3bh[12:1]/B7f,,,6bh[12:1]/4bh[12:1],
5bh[12:1]/2bh[12:1],6bh[12:1]/4bh[12:1],{48}7bx,,,8b,,,{16}7b,2bx,1b,2b,8bx,1b,
{2}8bw4[8:1],1bw5[8:1],
{24}8bqq3b[4:13],7/1,6/2,5/3,{6}4bqq7[12:37],{1},,,{4},,{6},{4}4,
4,4,4,
5/4,5/4,5/3,5/2,
{1}5/1w5[2:1],
{4}3/6h[4:1],2h[4:1],4h[4:1],5,
{8}5b,4,{16}6,3,8,2,{8}5,3,4/6,7,
6/3b,5,{16}2,6,1,7,{8}4,6,3/5,2,
5/1,6pp4[8:3],2,3/6,{2}1-5b[8:1],
{8}7xh[16:5],3xh[16:3],{24},,,2b/6b,1/5,8/4,{4}3/7,{8}4/8-4[8:1],3,
8b,1,{16}7,2,5,3,{8}8,4,7/1-5[8:1],6,
1b,8,{16}2,7,4,6,{8}1,5,8/2,3,
4/5,1/6<1[16:3],{24},,,6/2b-5[8:1],3,4,{8}5-8b[8:1],7,{4}8,
7h[8:1]/1h[8:1],{12}6/2,6/2,6/2,{4}2v5b[8:1]/6-1[8:1],2/6b,
{8}7/4,3,{16}7,2,6,3,{8}5-8[8:1],4,5,3,
2/5,6,{16}2,7,3,6,{8}4-1[8:1],5-8[8:1],4,5,
2,7V53[4:1],,3V17[4:1],,7-4b[16:3],{4}8,
{8}1,1,{24},,,1b-5[8:1]/5b-2b[8:1],2/6,3/7,{2}4/8,
{8}6/4,6,2,2,5/3,5,1,1,
4/3,4/3,5/2,2/5,6/1,6/1,8/7,8/7,
{24}1,2,3,4,5,6,7,8,1,2,3,4,5/8,7,6,5,4,3,2,1,8,7,6,5,
{32}1b,2,3,4,,,,,7b,6,5,4,{96},,,,,,,,,,,,{24}3b,4,5,6,,,1b,2,3,4,5,6,
{4}7h[2:1]/1bxh[1:1],{8},,,,6,5,
{4}4,3h[4:1],8h[4:1],2h[1:1],
{16}D1,D8,D7,D6,D5,D4,D3,D2,D1,D8,D7,D6,{4}D5,
{2}3x/1xpp8[4:3],{4}7,6,
{8}5x<3[1:1],,,3,,,{4}4,
{2}5xqq7[4:3],{4}2,1,
{2}8xpp6b[4:3],{4}5,4,
{2}3h[16:7],{16}2,1,8,7,2,1,8,7,
{4}4b-1b[8:1],5V31-7[8:3],5,{8}5v8b[16:3],3,
{4}5x/2v5[16:3],2x/4-7b[8:1],3x/4-1[8:1],4x/8<5b[8:1],
{24}8b,1,2,3,,,,,,{8}2b/6b,,8b/4b,{4}6b/2b,
{24}1b/5b,6/2,7/3,8h[4:1]/4h[4:1],,,,,,,,,{4}7/3,6/2,
{8}3/5,3,7,7,4/6,4,8,8,
5/6,5/6,4/7,7/4,3/8,3/8,1/2,1/2,
{16}2bx,1,3,8,4,7,5,6,8bx,7,1,6,2,5,3,4,
{32}2b,3,4,5,6,7,8,1,2,3,4,5,6,7,8,1,2/7b,6,5,4,3,2,1,8,7,6,5,4,3,2,1,8,
{1}7h[1:1]/3bh[2:1],
{2}B3,B8,
(210)6h[32:1]/5h,3h[16:1]/4h[32:1],
(205){16}5,4,5,4,5,4,5,4,{4}5,{8}3,4,
(200){4}5/E4,6,5,4,
(195)3/E5,3,4,5,
(190)6/E5,5/E4,{2}4h[2:3]/E3,
E
