&title=畏光症-silent spiral-
&artist=Evalia/诗岸
&first=0.03
&des=(恍如白昼。)
&des_5=
&lv_5=13
&inote_5=(85.5){4},,,,,,{8}3h[8:1],
4,5h[8:1],4q5[8:3],
{1},{8}6h[8:1],
5,4h[8:1],5p3[8:3],{1},{8}3h[8:1],
4,6h[8:1],5p4[8:3],
{1},{8}6h[8:1],
5,3h[8:1],4q5[8:5],2x,1xp8[8:5],{4},,,{2}Ch[8:3],
{8}E6,E4,{16}7h[4:1],{8},{16}5,{8}5,3h[4:1],{16},4,{8}4,
{16}5,4,6-4[12:1],5,,8,{8}8x,C,{16}3,3,4/3h[4:1],{8},{16}2,
{8}2V48[16:3],E2,{16},1,{8}1,3x,{16}5,A4,5,A6,{32}4xh[32:3],{16},{32}5,
{16},3,{64}B5,B6,{32}E6,{16},1<6[8:1],{8},{16}6,{8}6qq4[8:1],5,{16},8,{8}8,
{16}4>1[8:1],{8},{16}1,{8}1qq8[8:1],7,6,5x,{16}1h[4:1],{8},{16}7,
{8}7p6[4:1],C,{16},3,{8}3,{16}4h[4:1],{8},{16}5,{8}5-8b[12:1]/4?-1[12:1],5/4,
,C,5/6h[#0.7017555],7,8,8/1h[4:1],2,3,
{16}4,3<6[8:1],,E1,,7p3[12:1],{8}7,{4}Ch[16:1],{8}4/3h[4:1],2,
1,2/8h[4:1],7,6,{16}5-3z7-1[8:3],{4},{16}6x,{8}6x,
{4},{8}2/5h[4:1],7,4,2/4h[4:1],8,6,
{4}4/2pp4pp6b[8:3],{8}5x,A7,A8,A1,4/3h[4:1],2,
1,2/8h[4:1],6,5,7qq5[8:1],5qq3[8:1],7,2,
,4,{4}6b/3bqq5[16:3],{8}5,7qq1b[16:3],,8,
{16}2xqq1[16:3],{8},{16}1x>5[16:3],{8},6x,{16}7,7,8,8,5x>2[8:1],{8},{16}1,
8,7qq8[16:3],{8}6x,{16},1,{8}1,{16}2xv8b[8:1],{8},{16}7xV13[8:1],{8},{16}5,5,
6,6,{8}7xh[8:1],{4}5qq8[16:3],{8}7,1qq4b[16:3],,5,
{16}3xpp4[16:3],{8},{16}4x>8[8:1],{8},7x,{16},6,6,5pp4[16:3],8x,{8},{16}2,
{8}2,3xqq4b[16:3],{16},6,{8}6,7x>5[16:3],{16}6,5,{8}7bx,E5,
C,E1,8/7h[4:1],5,3,4/2h[4:1],1,7,
{16}6-4[12:1],{8},{16}6/5-8[48:5],{8},1h[4:1],{4},{8}1/2h[4:1],4,
6,5/7h[4:1],8,2,5,4pp6[12:1],4qq2[12:1],B3,
{4}B5,{8}4/2h[4:1],1,7,4/6h[4:1],7,1v3-1b[8:3],
,,,B6,{16},C,{8},2/4h[4:1],8,
6,5/3h[4:1],2,8-2-6-4[8:3],E1,E7,E5,E3,
{4},{8}A6,B5,E4,D3,{16}6,4,5,3,
{8}Cf/2xv4>3-5[4:1],8x,5,7,{16},6,{8}6h[8:1],{16}5x-3b[16:1],{8},{16}4x-1[8:1],
{8},E3,{16},4,4,2,{8}2xh[8:1],{16}4,3,5,4,{8}C/6xv4<5v3[8:3],
{16},2,{8}2,{16}1x,{8},{16}8x,{8},{16}4,4,6,6,{8}8bx,
{4}2v4p8[4:1],{8}1,7>3-5b[4:1],,5x,{16}7xh[16:1],{8},{16}1xh[16:1],
{8},C,{16},3xh[16:1],4xh[16:1],5xh[16:1],{8}6xh[8:1],8h[8:1],1h[8:1],3xh[8:1],
4h[8:1],5h[8:1],{16}7xpp3>6[2:1],{8},{16}3,{8},5,{16},4,{8},1bxh[8:3],
{4},{8}E7,{16},E3,{8},6h[8:1],{16}3,5h[8:1],
,2,{8}4h[8:1],{16}3,6h[8:1],,5,{8}8h[8:1],{16}2,5h[8:1],,4qq5[16:3],{8}B7,
{4},{8}7h[8:1],{16}5,8h[8:1],,3,{8}1h[8:1],{16}2,7h[8:1],,8,
{8}5h[8:1],{16}3,8h[8:1],,1,{8}B6,{4},{8}3h[8:1],{16}6,4h[8:1],
,6,{8}5h[8:1],{16}7,3h[8:1],,4,{8}1h[8:1],{16}7,4h[8:1],,5pp4b[16:3],{8}B2,
{4},{8}2h[8:1],{16}4,1h[8:1],,7,{8}8h[8:1],{16}6,2h[8:1],,1,
{8}4h[8:1],{16}6,1h[8:1],,8,{8}B3/B6,{4},{8}5V36[16:3],{16}6,3,
,1,{8}1V72[16:3],{16}2,7,,5,{8}5V36[16:3],{16}6,3,,1,{8}1xh[8:3],
{4},{8}5V74[16:3],{16}4,7,,1,{8}1V38b[16:3],{16}8,3,{8},{16}5bx,
{8},{16}E7,,E3,{8}E5,{16},4x/6xh[16:3],{8},1,5,
3h[8:1],8,{16}E4,E3,E2,E1,5x,5x,5xqq6[16:3],5x,5x,5x,1x,1xqq2b[16:3],
1x,1x,1x,1x,4x,4x,4x<7[8:1],4x,4x,4x,4x,4x,4x>1b[8:1],4x,4x,4x,
6x,6x,6xV48[16:3],6x,6x,6x,1x,1x,1x>4b[12:1],1x,1x,1x,{8}1bx,6,
5h[8:1],4,3h[8:1],2,{4}1h[4:1],{8}E8,{64}E4,B3,{32}B4,{16},,,,,E8,
E2,E1,B7,B2,C,B6,B3,C,E6,E4,E5,
{8}7xh[8:3],E1,E5,6V41[16:3],,8,{4}6xpp4[16:3],
{8}8,3xqq5b[16:3],{16}2,2,{8}4,{16}7xv6-4[16:3],{8},{16}4xV28[16:3],{8},1x,
{16},4,3,2,1x>4[8:1],{8},{16}6,7qq8[16:3],8,{8}1x,{16}4,3,{8}2,
{16}1xV35b[8:1],{8},{16}4xv2[8:1],{8},{16}6,6,7,7,8,8,{8}3xpp8[16:3],4,
1,7xpp4b[16:3],6,5,{16}3xv4-6[16:3],{8},{16}6xV82[16:3],{8},1x,
{16},5,5,6,{8}6pp5[16:3],{16}2,7,{8}4,3qq4b[16:3],{16}2,5,{8}3x,
7>5[16:3],{16}6,5,{8}7b,C,{16}1,1,5,5,{8}4-2[12:1],{16}3,5,
{8}4-6b[12:1],C,{16},1,{8}1,7-5-3-1[16:3],{16}4x,4x,,8x,{8}8x,
{16}3,3,8,8,{8}2v4>3-5[16:3],{16}3,5,2,6,{8}6xh[4:1],{16},5,{8}5-3[12:1],
{16}8bx,{8},{16}6bx,{8},{16}3,A4,3,A2,3,B7,{8}1,7,
3,5h[8:3],,4,{16}4,{8},{16}4/5,{8},7x,
{16}3,5,2,4,{8}3,6,8,4h[8:3],,5xp4[2:1],
{4}8xq1[2:1],{2},{4}C,
E
