&title=Crystal Tokyo
&artist=FantomenK & Meganeko
&first=0
&des=Krysta Bleug
&lv_7=月
&inote_7=(174)
{4},,
{8}1,1,7,7,
{4}8h[4:6]/2-4-1-5-8-6b[4:5],,,,,,
{8},18,,5h[4:3],3-1-4-8-5-7b[4:5],,,,,,,6h[4:3],,,,,,,,7h[4:6],
1-3-8-4-7-5b[4:5],,,,,,,,,,,,,47,,3h[4:3],
4-2-5-1-6-8b[4:5],,,,,,,4h[4:3],,,,,,,,,
3-7[8:1],3,4-6[8:1],4,3-7[8:1],3,2-8[8:1],2,
3-7[8:1],3,4^7[8:1],4,3-6[8:1],2-7[8:1],3,2,
2-6[8:1],2,1-7[8:1],1,3-5[8:1],3,2-6[8:1],2,
1^6[8:1],1,2,2,3-6[8:1],2-7[8:1],3,2,
2-5[8:1],1-4[8:1],2,1,3-6[8:1],4-7[8:1],3,4,
{32}1,2,3,4,5,6,7,8,
1,2^8[8:7],3^1[8:6],4^2[8:5],5^3[8:4],6^4[8:3],7^5[8:2],,
{4},,,,,8<3[2:1]*p3[2:1],,,{8},A2,,,
D1f/D2/D3/D4/D5/D6/D7/D8/A1/A2/A3/A4/A5/A6/A7/A8,,,D1f/D2/D3/D4/D5/D6/D7/D8/A1/A2/A3/A4/A5/A6/A7/A8/E1/E2/E3/E4/E5/E6/E7/E8/B1/B2/B3/B4/B5/B6/B7/B8,,
{24}E2,E3,E4,E5,E6,E7,E8,E1,E2,
{16}E3,5,5,,C,,5,,,5,C,,,,,5,
{8}D1/D2/D3/D4/D5f/D6/D7/D8/A1/A2/A3/A4/A5/A6/A7/A8,,,,
3-6[8:1]b,2-7[8:1]b,3,2,
{16}5,5,C,,
{8},,1-4b[8:1],8-5b[9:1],1,8,D1/D2/D3f/D4/D5/D6/D7/D8/A1/A2/A3/A4/A5/A6/A7/A8,,,
D1/D2/D3f/D4/D5/A1/A2/A3/A4/A5/A8/E1/E2/E3/E4/E5/B4/B3/B2/B1,,
{16}5,5,,C,5,,,,,,
1,2^8^1^6[32:17],3^8^1^7[32:14],4^2^8[32:11],1,8^2^4[32:9],7^2^1^3[32:6],6^8^2[32:3],A5,A4/A6,A3/A7,A2/A8,
{8}A1f,,,,,,,,5p8b[4:1],5,8>5b[5:1],8,,,
{32}6,7,8,1,2,3,4,5,
{8}D1f/D2/D3/D4/D5/D6/D7/D8/A1/A2/A3/A4/A5/A6/A7/A8,,,D1f/D2/D3/D4/D5/D6/D7/D8/A1/A2/A3/A4/A5/A6/A7/A8/E1/E2/E3/E4/E5/E6/E7/E8/B1/B2/B3/B4/B5/B6/B7/B8,,,,
{24},7,6,5w1[24:21],4,3,2,1,8,7,6,5w1[24:13],4,3,2,1,8,7,6,5w1[24:5],4,3,2,1,8,7,6,
{8}5b/Cf,,,,,,,,2-5[8:1]b,1-4[8:1]b,2,1,,,
{32}3,4,5,6,7,8,1,2,
{8}D1/D8/D7f/D6/D5/D4/D3/D2/A8/A7/A6/A5/A4/A3/A2/A1,,,
D1/D8/D7f/D6/D5/A8/A7/A6/A5/A4/A1/E1/E8/E7/E6/E5/B5/B6/B7/B8,,,
2h[4:1],,,3h[4:1],,,4,4,5,5,
{8}6b/2b,{24}6b/2b,E2/E6,E5/E1,{8}A8/A4,
{8}3b/7b,{24}3b/7b,E8/E4,E5/E1,{8}A1/A5,
{8}8b/1b,{32}8b/1b,E2/E8,B7/B2,B3/B6,{8}E4/E6,,
4?^1[2.069##0.172]/5?^8[2.069##0.172],,4?-8[1.724##0.172]/5?-7[1.724##0.172],,
4?-2[1.379##0.172]/5?-1[1.379##0.172],,4?-1[1.034##0.172]/5?-8[1.034##0.172],,
4?w8[0.67##0.172]/5?w1[0.67##0.172],,,,4b/5b,,
{24}
3,4,5,6,7,8,1/5,2,3,4,5,6,7,8,1,2,3,4,5/1,6,7,8,1,
2,3,4,5,6,7,8,1/5,2,3,4,5,6,7,8,1,2,3,4,1/5,6,7,8,1,
2,3,4,5,6,7,8,1/5,2,3,4,5,6,7,8,1,2,3,4,5/1,6,7,8,1,
2,3,4,5,6,7,8,1/5,2,3,4,5,6,7,8,1,2,3,4,5/1,6,7,8,1,2,
{8}3h[4:1]/5h[8:1],,,4h[8:1]/6h[4:1],,,5h[4:1]/7h[8:1],,,
6h[8:1]/8h[4:1],,,1-5[8:1]/7-3[8:1],,,,
6h[4:1]/4h[8:1],,,5h[8:1]/3h[4:1],,,4h[4:1]/2h[8:1],,2,2,7,7,
{16}1>1[4:33]>1[4:30]p6[4:20]<7[8:13]b,
8>8[16:131]>8[4:30]p5[4:20]<6[4:5]b,
2>2[16:130]>2[4:30]p7[4:20]>8[4:8]b,
7>7[16:129]>7[4:30]p4[4:20]<5[4:4]b,
3<3[16:128]<3[4:30]p8[4:20]>2[4:1]b,
6<6[16:127]<6[4:30]p3[4:20]<4[4:3]b,
4<4[16:126]<4[4:30]p1[4:20]>2[4:1]b,
5<5[16:125]<5[4:30]p2[4:20]>3[4:2]b,
{4}1h[2:1],,
{8},2,3,4,6,5,6h[8:3],,,8h[8:3],,,7h[8:5],,,,,5h[8:1],4h[8:6],3h[8:5],,,,,,6,5,6,
{32}1,2,3,4,5,6,7,8,1,2,3,4,8,7,6,5,4,3,2,1,8,7,6,5,
{64}A1,D2,A2,D3,A3,D4,A4,D5,A5,D6,A6,D7,A7,D8,A8,D1,
{8}A1/C,,6/C,,2/C,,8/C,,
3h[8:2],,4h[8:1],5h[8:2],,7h[8:5],2h[8:4],,,,,,
{16}7,5,6,4,5,3,4,2,
{8}Ch[4:1]f,,,,,,,,,,
1bhx[4:1],,8bx,,7b/2b,,3h[8:5],,,,,4h[8:1],5h[8:6],6h[8:5],,,,,
,3,4,3,
{32}8,7,6,5,4,3,2,1,8,7,6,5,
{64}A1,D2,A2,D3,A3,D4,A4,D5,A5,D6,A6,D7,A7,D8,A8,D1,A1,D2,A2,D3,A3,D4,A4,D5,
{32}8,7,6,5,4,3,2,1,
{8}8/C,,3/C,,7/C,,1/C,,
6h[4:1],,5h[8:1],4h[4:1],,1h[8:1],8,,
{16}27,,1,8,1,,27,,1>1[16:72]>2[2:1]b,8>8[16:71]>2[2:1]b,2>2[16:70]>3[4:3]b,7>1[64:69]>7[64:207]>8[4:9]b,3<3[16:68]<4[4:4]b,6<6[16:67]<7[8:15]b,4<4[16:66]<5[4:5]b,5<5[16:65]<6[4:6]b,
{4}A1,A2,A3,A4,A5,A6,A7,A8,,,,,,,,,
{4},A8,,,,,,,,,,,
