&title=果てなき風の軌跡さえ
&artist=少女フラクタル
&first=0
&des=東風谷 七月
&des_5=東風谷 七月
&lv_5=13
&inote_5=(160){4},,,,{8}3,
4,5,6,{4}7>2[4:1],2>5[4:1],
5<8[4:1],8>3[4:1],{2}3<6[4:1],
{8}3,2,1,8,{4}7-4[8:1],1-5[8:1],
8-4[8:1],3>6[4:1],{2},{4}2>5[8:1]/8<5[8:1],
2x/8x,7<4[8:1]/1>4[8:1],7x/1x,
5-1[8:1],3-8[8:1],6-1[8:1],{8}4v7[8:1],4v1[8:1],
{2},1xh[4:1]/8xh[4:3],
7h[2:1],{6}6,5,4,
{8}3,7,2,6,3,7,4,8,
{4}4bh[4:3],{2},{4}8b,
{8}2-5[8:1],2,6<1[8:1],6,3-8[8:1],3,5-1[8:1],5,
2-6[8:1],2,1-5[8:1],1,8-4[8:1],8,7-3[8:1],7,
2v5[8:1],2,6v1[8:1],6,4-1[8:1],4,7-3[8:1],7,
2>5[8:1],2,6-1[8:1],6,2-5[8:1],2,{4}7b,
{8}7-5[8:1],7,8-4[8:1],8,1-5[8:1],1,2-4[8:1],2,
7-5[8:1],7,8-5[8:1],8,1-5[8:1],1,2,2,
{4}3bx/4bx,7bx/8bx,{6}2bx/4bx,5bx/7bx,6bx/3bx,
{16}1b/8b,{8},{16}2b/4b,{8},6b/7b,{16},3b/1b,{8},6/8,5/4,
{2}6/3h[1:1],B6,
8h[1:1],B3,
2h[1:1],B7,
7h[1:1],B3,
3h[1:1],B6,
6h[1:1],B2,
2h[1:1],B7,
7h[1:1],B3,
{4}3h[1:1],B7,{8}4,5,{4}6,
6h[1:1],B2,{8}5,4,{4}3,
3h[4:1],{8}7,7<4[8:1],,3,{4}3>8[8:1],
{8}7,6,5,4,{4}3-7[8:1],4/3,
6x,5/6h[4:3],{16}1,{8},{16}2,{8},3,
{4}4h[2:1],8,{16}7,{8},{16}6,{8},5,
{4}4h[4:1],6h[4:1],{16}4,5,4,5,3,6,3,6,
2,7,3,6,1,8,2,7,{4}1p5[8:1]*q5[8:1],1b,
4/3h[4:1],B2/B3,{16}5/4,{8},{16}4,{8}5,5,
{4}6x<1[8:1],{8}4x,4x<7[8:1],,8,{4}8>3[8:1],
6h[4:1],B7/B6,{16}4/5,{8},{16}5,{8}4,4,
{4}3x>8[8:1],5x>2[8:1],1<6[8:1],4w8[8:1],
{2}4b,{16}3/5,{8},{16}3,{8}4,4,
{4}5-1[8:1]*s1[8:1],5,8-4[8:1],{8}8/1b,3,
{4}3h[4:1],5h[4:1],7h[4:1],1h[4:1],
{6}3b,6/8,5/3,4h[4:1]/6h[4:1],{3},{6}4b/2b,
5b/7b,3b/6b,8b/1b,{12},{16}2,6,{8}2,
7/1-5[8:1],{16}8,2,{8}1bx,3,2/8-4[8:1],{16}1,7,{8}8bx,6,
1-5[8:1],8,1/7-4[8:1],8,{4}7/1-5[8:1]*-3[8:1],1b,
{8}2/8-4[8:1],{16}1,7,{8}8bx,6,7/1-5[8:1],{16}8,2,{8}1bx,3,
{6}4/6,1/2,{12}6/8w4[6:1],{6},{12}8b,{3}C,
{8}6/4-8[8:1],{16}5,3,{8}4bx,2,3/5-1[8:1],{16}4,6,{8}5bx,7,
4-8[8:1],5,4/6-1[8:1],5,{4}6/4,{8}3,3h[4:1],
,4,{4}4h[4:1],5h[4:1],6xh[4:1],
{8}4x,{16}3-8[8:1],4,{8}2,3,5x,{16}6-1[8:1],5,{8}7,6,
{1}Cfh[1:1],
{8}7x-4[8:1],8x,7x/2x>5[8:1],1x,2/7<4[8:1],8,7/2-6[8:1],1,
{16}2-4[8:1],{8},{16}1,{8}2,8,{16}7-5[8:1],{8},{16}8,{8}7,1,
{6}4bx/3bx,6bx/7bx,{12}2bx/1bxw5[6:1],{6},{12}1x,{3}Cf,
{8}7/1-5[8:1],{16}8,2,{8}1bx,3,2/8-4[8:1],{16}1,7,{8}8bx,6,
1-5[8:1],8,1/7-4[8:1],8,7/1-5[8:1],8,1/7-3[8:1],8,
{4}7/5w1[8:1],5b,4w8[8:1],4b,
8-5[8:1]/1-4[8:1],{16}1b/8b,C,{8},{16}4/6-1[8:1],{8},{16}5,{8}6,4,
{16}3,5,3,5,2,6,2,6,1,7,1,7,{32}1bx,2,3,4,5,6,7,8,
{1}1b/Cf,
{4}3h[8:7],{8}4,5,,8,7,6h[2:1],
5,4,3,2h[8:5],,5,6,7,
{4}7h[2:1],B3,2h[4:5],B6,
{8}4,5,6,7h[8:3],{2},{4}4/3,
B2,4/5,C,
5/6h[4:3],B7,B8,B1,
{8}2,8,3,7,4,6,{4}4h[1:1],
5,{8}6,7,,8,{4}7,
{6}8/3h[8:11],7,6,7,6,5,
{4},{8},{32}6,7bpp3[32:75],{16}8,
