&title=Roundtable Rival
&artist=Lindsey Stirling
&first=0.00
&lv_1=2
&lv_2=5
&lv_3=8
&lv_4=9
&lv_5=12+
&des_1=Tane
&des_2=Tane
&des_3=Tane
&des_4=Tane
&des_5=Tane
&des=Tane
&inote_1=
(127.9){2},,,,
{4}4h[2:1],,,,
{4}3^6[2:1],,,,
{4}5h[2:1],,,,
{4}6^3[2:1],,,,
{4}1h[2:1],,,,
{4}2^7[2:1],,,,
{4}8h[2:1],,,,
{4}7^2[2:1],,,,
{4}4h[2:1],,,,
{4}3^6[2:1],,,,
{4}5h[2:1],,,,
{4}6^3[2:1],,,,
{4}1h[2:1],,,,
{4}2^7[2:1],,,,
{4}8h[2:1],,,,
{4}7^2[2:1],,,,
{4}7h[2:1],,,,
{4}6p4[8:5],,,,
{4}2h[2:1],,,,
{4}3q5[8:5],,,,
{4}7,,6,,
{4}6p4[8:5],,,,
{4}2,,3,,
{4}3q5[8:5],,,,
{4}2,,3,,
{4}3q5[8:5],,,,
{4}7,,6,,
{4}6p4[8:5],,,,
{4}45,,36,,
{4}45,,36,,
{8}4,,4,,
5,,5,,
{4}45,,,4b/5b,
{4}3,,3^6[4:1],,
{4}7-4[4:1],,,,
{4}3,,3,,
{4}8,,1-4[4:1],,
{4}6,,6^3[4:1],,
{4}2-5[4:1],,,,
{4}6,,6,,
{4}21,,8-5[4:1],,
{4}4,,,,
{8}4,,,,
,,,,
{4}5,,,,
{8}5,,,,
,,,,
{4}1,,,,
{8}1,,,,
,,,,
{4}8,,,,
{8}8,,,,
,,,,
{4}45,,36,,
{4}1^4[4:1],,,,
{4}3h[2:1],,,,
{4}7h[2:1],,,,
{4}18,,27,,
{4}4^1[4:1],,,,
{4}2h[2:1],,,,
{4}6h[2:1],,,,
{1},
{4}3,,3^6[4:1],,
{4}7-4[4:1],,,,
{4}3,,3,,
{4}8,,1-4[4:1],,
{4}6,,6^3[4:1],,
{4}2-5[4:1],,,,
{4}6,,6,,
{4}21,,8-5[4:1],,
{4}2,,2^7[4:1],,
{4}6-1[4:1],,,,
{4}2,,2,,
{4}5,,4-1[4:1],,
{4}7,,7^2[4:1],,
{4}3-8[4:1],,,,
{4}7,,7,,
{4}34,,5-8[4:1],,
{1},,,,,,,,,,,,,,,,E
&inote_2=
(127.9){2},,,,
{4}4h[4:1],,4,,
{4}3^6[4:1],,7,,
{4}5h[4:1],,5,,
{4}6^3[4:1],,2,,
{4}1h[4:1],,1,,
{4}2^7[4:1],,6,,
{4}8h[4:1],,8,,
{4}7^2[4:1],,3,,
{4}4h[4:1],,4,,
{4}3^6[4:1],,7,,
{4}5h[4:1],,5,,
{4}6^3[4:1],,2,,
{4}1h[4:1],,1,,
{4}2^7[4:1],,6,,
{4}8h[4:1],,8,,
{4}7^2[4:1],,3,,
{4}7h[4:1],,6,,
{4}6p4[8:5],,,,
{4}2h[4:1],,3,,
{4}3q5[8:5],,,,
{4}7,,6h[4:1],,
{4}6p4[8:5],,,,
{4}2,,3h[4:1],,
{4}3q5[8:5],,,,
{4}2,,3h[4:1],,
{4}3q5[8:5],,,,
{4}7,,6h[4:1],,
{4}6p4[8:5],,,,
{4}45,,36,,
{4}45,,36,,
{8}4,,4,,
5,,5,,
{4}45,,,4b/5b,
{4}3,6,3^6[4:1],,
{4}7-4[4:1],,3,,
{4}3,6,3,,
{4}8,1,1-4[4:1],,
{4}6,3,6^3[4:1],,
{4}2-5[4:1],,6,,
{4}6,3,6,,
{4}21,,8-5[4:1]/1,,
{4}4,,5,,
{8}4,,,,
5,,,,
{4}5,,4,,
{8}5,,,,
4,,,,
{4}1,,8,,
{8}1,,,,
8,,,,
{4}8,,1,,
{8}8,,,,
1,,,,
{4}45,,36,,
{4}1^4[4:1],,8,,
{4}3h[2:1],,,,
{4}7h[2:1],,,,
{4}18,,27,,
{4}4^1[4:1],,5,,
{4}2h[2:1],,,,
{4}6h[2:1],,,,
{1},
{4}3,6,3^6[4:1],,
{4}7-4[4:1],,3,,
{4}3,6,3,,
{4}8,1,1-4[4:1],,
{4}6,3,6^3[4:1],,
{4}2-5[4:1],,6,,
{4}6,3,6,,
{4}21,,8-5[4:1]/1,,
{4}2,7,2^7[4:1],,
{4}6-1[4:1],,2,,
{4}2,7,2,,
{4}5,4,4-1[4:1],,
{4}7,2,7^2[4:1],,
{4}3-8[4:1],,7,,
{4}7,2,7,,
{4}34,,5-8[4:1]/4,,
{1},,,,,,,,,,,,,,,,E
&inote_3=
(127.9){2},,,,
{4}4h[4:1],,4,4,
{4}3^6[4:1],,7,,
{4}5h[4:1],,5,5,
{4}6^3[4:1],,2,,
{4}1h[4:1],,1,1,
{4}2^7[4:1],,6,,
{4}8h[4:1],,8,8,
{4}7^2[4:1],,3,,
{4}4h[4:1],,4,3,
{4}3^6[4:1],,7,,
{4}5h[4:1],,5,6,
{4}6^3[4:1],,2,,
{4}1h[4:1],,1,2,
{4}2^7[4:1],,6,,
{4}8h[4:1],,8,7,
{4}7^2[4:1],,3,,
{4}7h[4:1],,6h[4:1],,
{4}6p4[8:5],,,,
{4}2h[4:1],,3h[4:1],,
{4}3q5[8:5],,,,
{4}7,7,6h[4:1],,
{4}6p4[8:5],,,,
{4}2,2,3h[4:1],,
{4}3q5[8:5],,,,
{4}2,2,3h[4:1],,
{4}3q5[8:5],,,,
{4}7,7,6h[4:1],,
{4}6p4[8:5],,,,
{4}45,45,36,36,
{4}45,45,36,36,
{8}4,5,4,5,
4,5,4,5,
{4}4h[2:1]/5h[2:1],,,4b/5b,
{4}3h[8:1],6h[8:1],3^6[4:1],,
{4}7-4[4:1],,3,34,
{4}3h[4:1],6,3h[4:1],,
{4}78,12,1-4[4:1]/8,,
{4}6h[8:1],3h[8:1],6^3[4:1],,
{4}2-5[4:1],,6,65,
{4}6h[4:1],3,6h[4:1],,
{4}21,87,8-5[4:1]/1,,
{4}4,4,5,5,
{8}4,,24,,
5,,57,,
{4}5,5,4,4,
{8}5,,75,,
4,,42,,
{4}1,1,8,8,
{8}1,,31,,
8,,86,,
{4}8,8,1,1,
{8}8,,68,,
1,,13,,
{4}45,45,36,36,
{4}1^4[4:1],,8^5[4:1],,
{4}3h[4:1],,5h[4:1],,
{4}7h[4:1],,1h[4:1],,
{4}18,18,27,27,
{4}4^1[4:1],,5^8[4:1],,
{4}2h[4:1],,8h[4:1],,
{4}6h[4:1],,4h[4:1],,
{1},
{4}3h[8:1],6h[8:1],3^6[4:1],,
{4}7-4[4:1],,3,34,
{4}3h[4:1]/4,6,3h[4:1]/4,,
{4}78,12,1-4[4:1]/8,,
{4}6h[8:1],3h[8:1],6^3[4:1],,
{4}2-5[4:1],,6,65,
{4}6h[4:1]/5,3,6h[4:1]/5,,
{4}21,87,8-5[4:1]/1,,
{4}2h[8:1],7h[8:1],2^7[4:1],,
{4}6-1[4:1],,2,21,
{4}2h[4:1]/1,7,2h[4:1]/1,,
{4}65,43,4-1[4:1]/5,,
{4}7h[8:1],2h[8:1],7^2[4:1],,
{4}3-8[4:1],,7,78,
{4}7h[4:1]/8,2,7h[4:1]/8,,
{4}34,56,5-8[4:1]/4,,
{1},,,,,,,,,,,,,,,,E
&inote_4=
(127.9){2},,,,
{4}4h[4:1],,7^4[8:1],3,
{4}3,3,3h[4:1]/4h[4:1],,
{4}3h[4:1],,6^3[8:1],2,
{4}34,23,34,34,
{4}5h[4:1],,2^5[8:1],6,
{4}6,6,6h[4:1]/5h[4:1],,
{4}6h[4:1],,3^6[8:1],7,
{4}65,76,65,65,
{4}8<4[8:1],3h[8:1],3,34,
{4}34,45,6h[4:1],5,
{4}7<3[8:1],2h[8:1],2,24,
{4}3,24,{8}3,3,24,,
{4}1>5[8:1],6h[8:1],6,65,
{4}65,54,3h[4:1],4,
{4}2>6[8:1],7h[8:1],7,75,
{4}6,75,{8}6,6,75,,
{4}7h[4:1],6h[4:1],5,,
{4}6p4[8:5],,,,
{4}2h[4:1],3h[4:1],4,,
{4}3q5[8:5],,,,
{8}3h[4:1],,4h[4:1],,
3h[4:1],,4,,
{4}4q6[8:5],,,,
{8}6h[4:1],,5h[4:1],,
6h[4:1],,5,,
{4}5p3[8:5],,,,
{8}2h[4:1],,1h[4:1],,
2h[4:1],,1,,
{4}1p7[8:5],,,,
{8}7h[4:1],,8h[4:1],,
7h[4:1],,8,,
{4}8q2[8:5],,,,
{4}45,45,36,36,
{4}45,45,27,27,
{8}4,4,5,5,
3,3,6,6,
{4}4^1[4:1]/5^8[4:1],,,1b/8b,
{4}3h[8:1]/4,4/6h[8:1],3^6[8:1]/4,6,
{4}7-4[8:1],3h[4:1],4,34,
{4}3h[4:1]/4,6,3h[8:1]/4,3/6h[8:1],
{4}7h[8:1]/8h[8:1],1h[8:1]/2h[8:1],7-4[8:1]/8-3[8:1],,
{4}6h[8:1]/5,5/3h[8:1],6^3[8:1]/5,3,
{4}2-5[8:1],6h[4:1],5,65,
{4}6h[4:1]/5,3,6h[8:1]/5,6/3h[8:1],
{4}2h[8:1]/1h[8:1],8h[8:1]/7h[8:1],2-5[8:1]/1-6[8:1],,
{4}4,24,45,45,
{8}6,6,5,,
45,,34,,
{4}5,75,54,54,
{8}3,3,4,,
54,,65,,
{4}1,31,18,18,
{8}7,7,8,,
18,,21,,
{4}8,68,81,81,
{8}2,2,7,7,
1,1,81,,
{4}45,36,2h[4:1]/7h[4:1],,
{4}1^4[8:1],8,8^5[8:1],1,
{4}2h[4:1]/4h[4:1],,5h[4:1]/7h[4:1],,
{4}1h[4:1]/3h[4:1],,6h[4:1]/8h[4:1],,
{4}5^7[8:1],3,{8}2^5[8:1],5,5,,
{4}6h[4:1],5,3h[4:1],4,
{4}4^2[8:1],6,{8}7^4[8:1],4,4,,
{8}3,3,6,6,
4,4,54,,
{1},
{4}3h[8:1]/4h[8:1],5h[8:1]/6h[8:1],3^6[8:1]/4,6,
{4}6^3[8:1],3,34,56,
{4}3h[8:1]/4h[8:1],3h[8:1]/4h[8:1],3h[8:1]/4h[8:1],34,
{4}12,78,56,,
{4}6h[8:1]/5h[8:1],4h[8:1]/3h[8:1],6^3[8:1]/5,3,
{4}3^6[8:1],6,65,43,
{4}6h[8:1]/5h[8:1],6h[8:1]/5h[8:1],6h[8:1]/5h[8:1],65,
{4}87,21,43,,
{4}3h[8:1]/4h[8:1],5h[8:1]/7h[8:1],2>6[8:1]/4,6,
{4}6^3[8:1],3,34,57,
{4}3h[8:1]/4h[8:1],7h[8:1]/8h[8:1],3h[8:1]/4h[8:1],34,
{4}23,18,67,45,
{4}6h[8:1]/5h[8:1],4h[8:1]/2h[8:1],7<3[8:1]/5,3,
{4}3^6[8:1],6,65,42,
{4}6h[8:1]/5h[8:1],2h[8:1]/1h[8:1],6h[8:1]/5h[8:1],65,
{8}6,7,8,1,
,,,,
{1},,,,,,,,,,,,,,,,E
&inote_5=
(127.9){2},,,,
{4}5h[4:1],6>2[8:1],7h[4:1],1,
{16}7,,3,4,
3<1[4:1],,7,,
5h[8:2],,,,
,,,,
{4}6h[4:1],7<3[8:1],8h[4:1],{8}2,2,
{16}3h[16:1],,4h[16:1],,
3h[16:1],,2h[16:1],,
{24}2^5[8:1],3,2,3,,,{16}7,,,,
{4}4h[4:1],3<7[8:1],2h[4:1],8,
{16}2,,6,5,
6>8[4:1],,2,,
4h[8:2],,,,
,,,,
{4}3h[4:1],2>6[8:1],1h[4:1],{8}7,7h[16:1],
{8}7h[16:1],8h[16:1],1h[16:1],8h[16:1],
{16}1^4[12:1],8,1,8,
1,,,,
{16}1>5[8:1],,2,,
1/3h[8:1],,,,
6^3[8:1],5,6,,
2,,,,
{16}2/4^1[8:1],,5,4,
5-1[8:1],,6,,
3^6[8:1]/5,,2,,
36,,7,,
{16}8>4[8:1],,1,,
2h[8:1]/8,,,,
5p4[16:3],4,5,,
2,,,,
{16}2h[16:1]/4,,3/4h[16:1],,
5h[16:1]/6,,5/7h[16:1],,
{24}5^2[8:1],7,5,7,,,
{16}8,,,,
{16}8<4[8:1],,7,,
8/6h[8:1],,,,
3^6[8:1],4,3,,
7,,,,
{16}7/5^8[8:1],,4,5,
4-8[8:1],,3,,
6^3[8:1]/4,,7,,
63,,2,,
{16}1<5[8:1],,8,,
7h[8:1]/1,,,,
4^1[8:1],5,4,,
7,,7h[16:1],,
{8}7/8h[16:1],2h[16:1]/4,5/7h[16:1],1h[16:1]/2,
{16}2^5[8:1],1,2,1,
2,,,,
{8}6h[4:1],,1h[4:1],,
7,6,5,7h[8:2],
{8},5,7pp5[8:3],5,
4h[4:1],,,,
{8}4h[8:1]/6h[8:1],,2h[8:1]/5h[8:1],,
2h[8:1]/5h[8:1],,34,2/5h[8:5],
{16},2,,,
,3,,,
4,,,,
,,,,
{8}3h[4:1],,8,1/8h[8:1],
2,3/8h[8:1],4,2h[8:2],
{8},3,2qq4[16:5]/4,5,
6h[4:1],,,,
{8}5h[8:1]/3h[8:1],,7h[8:1]/4h[8:1],,
1/4h[8:1],7,65,7/4,
{16},7h[16:4],,,
,6qq4[16:4],,,
5h[16:4],,,,
,,,,
{8}6h[4:1],,1,8/1h[8:1],
7,6/1h[8:1],5,7h[8:2],
{8},6,7pp4[16:5]/5,4,
2h[4:1],,,,
{8}4h[8:1]/6h[8:1],,2h[8:1]/5h[8:1],,
8/5h[8:1],2,34,2/5,
{16},2h[16:4],,,
,3pp5[16:4],,,
4h[16:4],,,,
,,,,
{4}4h[8:1]/5h[8:1],6h[8:1]/7h[8:1],1h[8:1]/8h[8:1],2h[8:1]/3h[8:1],
{8}4h[8:1]/5,7,6/7h[8:1],1,1h[8:1]/8,3,2/3h[8:1],5,
{8}56,78,12,34,
56,12,34,78,
{4}6<3[4:1],3q5[4:1],4h[8:1],4b,
{8}3^6[8:1]/4h[8:1],,3/8p4[8:1],7,
8/3<8[6:1],2q1[8:1],,,
{8},8,5<3[4:1]/7,46,
35,,4,,
{8}2/4^1[8:1],3,4/5^8[8:1],7,
4/5,2-5[8:1],1,28,
{8}7-4[8:1],8,17,2,
1^4[8:1]/8^5[8:1],27,,,
{8}6^3[8:1]/5h[8:1],,6/1q5[8:1],2,
1/6>1[6:1],7p8[8:1],,,
{8},1,4>6[4:1]/2,53,
64,,5,,
{8}7/5^8[8:1],6,5/4^1[8:1],2,
5/4,7-4[8:1],8,71,
{8}2-5[8:1],1,82,7,
8-5[8:1]/1-4[8:1],72,18,,
{16}4^6[12:1]/5,,3,4,
3,,2h[8:1],,
7^4[8:1],2,7,2,
7,,1,,
{16}78,,7,8,
7,,1,,
34,,1,,
3,4,5,,
{16}5^3[12:1]/4,,6,5,
6,,7h[8:1],,
2^5[8:1],7,2,7,
2,,8,8,
{16}1,7,5,7,
2,6,4,6,
{24}4>5[6:1],3,2,1,,,
{16},,,,
{16}54,,6,6,
7h[8:1]/4,,4,,
4,7,4,6,
45,,6,4,
{16}47,,7,4,
48,,6,,
45,,8,,
47,6,5,,
{16}45,,3,3,
2h[8:1]/5,,5,,
5,2,5,3,
54,,3,3,
{16}1,2,7,4,
8,3,6,5,
7,4,6,3,
54,,,,
{4}4/7^4[8:1],7/1>7[4:1],7q1[4:1],8,
{4}8h[8:1],1h[8:1]/7h[8:1],2h[8:1]/6h[8:1],3h[8:1]/5h[8:1],
{16}4h[16:2],,,,
7-4[8:1],7,7,7h[16:3],
,,,,
1-5[8:1],1,1,1h[16:3],
{16},,,,
8,8,8,8,
7h[16:1]/8,,1/2h[16:1],,
6h[16:1]/8,,1/3h[16:1],,
{16}5^8[8:1]/7,,4,5,
4,,2,,
2-5[8:1],1,3,7,
2,,6,5,
{16}7^4[8:1],,8,8,
7/1v6[8:1],,2,,
1/8>5[8:1],,7,,
,,,,
{16}4^1[8:1]/2,,5,4,
5,,7,,
7-4[8:1],8,6,2,
7,,3,4,
{16}8,7,2,5,
1,6,3,4,
2,5,3,6,
45,,,,
{1},
{8}2-5[8:1]/7,1,2/7-3[8:1],8,
1<5[8:1],2p4[8:1],,,
{8},24,3/5qq1[8:3],46,
5/8-6[8:1],,,,
{16}1h[8:1]/5h[8:1],,,2h[8:1]/6h[8:1],
,,3h[16:1]/7h[16:1],,
4h[4:1]/8,,,,
8-4[8:1],4,8,6,
{8}8,1-5[8:1],2-6[8:1],1,
2>6[8:1],,,,
{8}7/8-4[8:1],1,5V73[4:1]/8,6,
3>6[4:1],,4,,
{8},1/4,2/5v2[8:1],37,
5/8>5[8:1],,2h[8:1],,
{24}1,5,2,6,3,7,
4,8,3,7,2,6,{8}1-4[8:1]*-6[8:1],28,1,,
{16}3,5,4w8[4:1],5,
3,,,,
,,,,
,,,,
{8}8-4[8:1]/1h[8:1],7,8/1V37[4:1],2,
7<2[4:1],5,6h[8:1],,
{16}8h[8:1],,,,
2^5[8:1],8,1,6,
2-6[8:1],,8,,
2,,,,
{16}8h[8:1]/4h[8:1],,,7h[8:1]/3h[8:1],
,,6h[16:1]/2h[16:1],,
5h[4:1]/1,,,,
1-5[8:1],5,1,3,
{16}1-4[8:1],,8,,
1,,5,,
1,5,3,7,
4,8,2,6,
{8}1^4[8:1],8,1/7V15[4:1],6,
5V38[4:1],4,3h[8:1],,
{8}2,1,8h[16:1]/7h[16:1],6h[16:1]/5h[16:1],
4h[16:1]/2h[16:1],7h[16:1]/5h[16:1],2/1,,
{16}7,8,7,2,
7h[8:1],,8,7,
2,6,5,6,
2,4,3,,
{16}3,5,4,6,
5,,46,,
,,4,,
35,,,,
{1},,,,,,,,,,,,,,,,E
