&title=breath of stella
&artist=HarryP feat.相宮零
&first=0
&des=双层吉士汉堡
&lv_5=13+
&des_5=双层吉士汉堡
&inote_5=
(176){4},,,,,,,,,,,,E6/E4,
E5,E4,E3,
E7/E2,E6,E5,E4,
E8/B1,E7,E6,E5,
E1/C,E8,E7,E6,
2h[4:3]/A6,A5,A4,A3,
7h[4:3]/A1,A2,A3,A4,
{1}8z4[2:1],
{8}3/5,5/3,6/4,4/6,3/7,7/3,8/2,8/2,
{1}Cf/1b>1s5b[2:3],
{8},,,,,,,,7h[8:1],
5h[8:1],6h[8:1],4h[8:1],8h[8:1],3h[8:1],1,1,
2b/8b,3,7/4,6,5-1[8:1],4,{4}2h[4:1],
{8}8,8,2,2,3b/7b,6,4/5,3,
2/7-5[8:1],1,7,1,2-6[8:1],5,2/6,7,
8h[8:1],5h[8:1],7h[8:1],4h[8:1],8h[8:1],3h[8:1],6h[8:1],1h[8:1],
{16}7,8,7,8,{8}6,2/5,{16}3,4,3,6,4,5,4,5,
{8}1b,7,{16}6x,5,6,5,6,5,{8}6,{4}7/4,
5/4,{8}6/2,{16}3x,4,3,4,{8}3,2x,{16}6x,4,
5,4,5,4,5,4,5,4,{4}6x,3/5,
6/2,{8}7,{16}6x,5,6,5,{8}7x,8/4,3,
{4}2/6,{8}2/5,{16}4x,3,4,3,{8}5,{4}2/6,
7/1,{8}7/3,{16}6x,4,5,4,{8}6,7/3,{16}2x,8,
1,8,2,8,1,8,2,8,{4}1,7h[8:1]/3h[8:1],
2h[8:1]/5h[8:1],{8}6/1,{16}7x,8,7,8,{8}6,1x-5[8:1],1x,
7/Cf,,,6,{4}6V47[4:1],1,
{8}2-5[8:1],2,{4}8,{8}7<4[8:1],7,{4}1,
1-5[8:1]/2-4[8:1],2/1,{8}7,7pp6[8:3],{4}4,
{8}4,3,{4}2-6[8:1],{8}2/6x,7x,{4}8-5[8:1]*-3[8:1],
{8}8x,,,3,{4}3V52[4:1],7,
{8}8-4[8:1],8,{4}1,{8}2v5[8:1],2,{4}6,
7-4[8:1]/8-3[8:1],8/7,{8}2,2q3[8:3],{4}5,
{8}5x,6x,{4}7x-3[8:1],7x/1<6[8:1]*>4[8:1],1b,
2h[8:3],{8}5,6,{4}4/7h[8:3],{8}1,2,
{4}5/3h[8:3],5,{2}6h[4:1]/4h[4:1],
{4}4/7h[8:3],{8}8,1,{4}5/2h[8:3],{8}8,7,
{4}4/6h[8:3],4,{2}8h[4:1]/3h[4:1],
{4}8/5>8[4:3],7,6,5,
4<1[4:3],1,2,3,
4-8[8:1],4b/6,5-1[8:1],5b/2,
{16}8x-4[8:1],4,6,2,{4}8bw4[8:1],{16}8b,Cf,,,,,{8}3/7,
{4}7b/3b<6[8:1],{8}3/7-3[8:1],8x,{4}7/1b>4-8[4:1],{8}1x/6-2[8:1],5x,
{4}6b,{8}1v6b[8:1]*v4b[8:1],2x,1b,,,7/4,
{4}4b/7bV53[8:1],{8}7b,1bx-6[8:1],2bx-5[8:1],1bx,{4}2bx-6-4[4:1],
2bx/6b,{8}8w4[8:1],7x,8bx,,,2,
{4}2-6-3[4:1],{8}6,7,{4}8-4[8:1],{8}8b/4,2,
{4}1-5-2[4:1],{8}5,6,{4}7-4[8:1]*-2[8:1],7b,
1x>5[4:1],5x<1[4:1],1x>5[4:1],5x>5[2:1],
{8}1bV75V31b[2:1],,,,,,,6x/2x,
{4}2bx/6bx-4[8:1],{8}6/2v5[8:1],3x,{4}2b<7[8:1]/6b>3[8:1],2x/6x,
{8}1b-5[8:1],2x,{4}1>4b[8:1]/6<1b[8:1],{8}1b/6b,,,8/4,
{4}8b/4bV62[4:1],{8}1x<6[8:1],8x,{4}1b>4[8:1],1x/5x-2[8:1]*-8[8:1],
5b,{8}1xw5[8:1],2x,1b,,,6/2,
{4}2/6V48[4:1],{8}8-6[8:1],1,{4}2,{8}2-6[8:1],7-4[8:1],
2,7>5[4:1],,7bx/5x,,,,3x/7x,
3x/7-4[8:1],2-5[8:1],7,2,{4}8-4[8:1],3/8,
{8}5xh[8:1],{16}3,4,3,5,4,6,{8}2xh[8:1],{16}8,1,7,2,6,3,
{8}5,5h[4:1],2,2h[4:1],7,7h[4:1],3,3h[4:1],
5,5h[4:1],1,1h[4:1],6,6h[4:1],3,3,
6/4,7,8/2,7/3,4,6/5,7/2,8/3,
{16}1,2,1,2,{8}8,3/7,{16}6,5,6,4,5,3,4,2,
{4}6bxv1[8:1],{8}6/2v5[8:1]*<7[8:1],3,{4}2b,{8}4/6-3[8:1],3-8-5[4:1],
{4}6b/1,{8}2<5b[8:1],3,2bx/7bx,,,7/3,
{4}7b/3b>8[8:1],{8}3/6-4[8:1],5,{4}6bx/1bx-5-2b[4:1],{8}6/1<5v2[4:1],7x,
{4}1bx,{8}4x>1b[8:1],3x,{32}4b/1bx,8,7,6,{8}5,,8/2,
{4}3/7V15[4:1],{8}4,3,{4}2-6[8:1],{8}2b/6,7,
{4}8V26[4:1],{8}5,4,{4}3-7[8:1],{8}3b/7,6,
{4}5<8[8:1],{32}5bx/1b,2x,3x,4x,,,,,{4}1x<6[8:1],{32}5b/1bx,4x,3x,2x,,,,,{16}E2,
E3,E4,E5,E1,E8,E7,E6,1x,2,3,4,8x,7,6,5,
{8}1b>5[8:1],2,1x/7x-4[8:1],8x-3[8:1],7b,8b,6v1-7[4:1],1,
{4}6b/2bx,{8}4w8[8:1],3,4b,,,2/6,
{4}2b/6b-3-8[4:1],{8}6/8-4[8:1],1,{4}2bx-6-3[4:1],2/5<8[8:1],
5b>2[8:1],5bw1b[8:1],{8}5b,,,7/2,
{4}3qq4[8:3],{8}3/7,6,{4}5<8[8:1],{8}5-1[8:1],4b-8[8:1],
5b-7[8:1],4b-2[8:1],5b,4b,,7x/1x,{4}1x/7x<4[8:1],
7/8,8/2-6[8:1],1/2,{8}7/3,6,
{16}4,5,4,5,3,6,3,6,2,7,2,7,1,8,1,8,
2b,7,2,7,3,7,3,7,4,7,4,7,5,7,5,7,
6,7,6,7,8,7,8,7,1b,6,1,6,2,6,2,6,
3b,5,3,6,4,7,3,8,2b,3,4,5,8,7,6,5,
{32}1bx,2,3,4,5,6,7,8,1,2,3,4,5,6,7,8,1,2,3,4,5,6,7,8,{4}1b/Cf,
6-3[8:1],2h[8:3],{8}1,1,8/3,7,
{4}4-8[8:1],7h[8:3],{8}1,1,6/2,3,
{4}5-8[8:1],1/5,{8}2-5[8:1],2,{4}7,
{16}6,5,{8}6,3/7,8,{16}2x/1,3,4,5,1x/6,8,7,6,
{4}5x/2xh[8:3],5,5/2xh[8:3],5,
4/6xh[8:3],4,4/6xh[8:3],4,
6/1h[4:1],6,6/2h[4:1],6,
4/7h[4:1],4,4/6h[4:1],4,
{2}8x<8z4[2:3],1xh[4:1],
4xh[4:1],3xh[4:1],
{6}7h[6:1],6h[6:1],5h[6:1],4h[6:1],3h[6:1],2h[6:1],
7h[6:1],4h[6:1],6h[6:1],2h[6:1],8h[6:11],Ch[3:5],
E
