&title=[全] 好きな惣菜発表ドラゴン [STD]
&artist=ンバヂ
&first=0.09
&des=
&des_6=[好] 好きな譜面発表Luxizhel
&des_5=[譜] 好きな譜面発表サファ太
&des_4=[好] 好きな譜面発表鳩ホルダー
&des_3=[面] 好きな譜面発表メロンポップ
&des_2=[表] 好きな譜面発表きょむりん
&des_1=[龍] 好きな譜面発表アマリリス
&lv_1=13+?
&lv_2=14?
&lv_3=13+?
&lv_4=13+?
&lv_5=14?
&lv_6=14?
&inote_1=(160)
{4},,
{4}E2,E3,E4,B2f,
{4}1>5[4:1],,1,1,
{4}1>5[4:1],,1,1pp4[4:3],
{1},
{4}1>5[4:1],,1,1,
{4}1>5[4:1],,1,1,
{4}1>5[4:1],,1,1pp5[4:3],
{1},
{4}8,1,1,,
{8}6>3[8:1],5,6,1,2>5[8:1],3,2,8,
{8}7<4[8:1],6,7,1,2>5[8:1],3,2,7,
{8}6>3[8:1],5,6,1,2<7[8:1],3,2,5,
{4}5w1[8:1],,1b/7b,2b/8b,
{16}6,5,8,8v5[8:1],,1,,8,,,,,3,4,1,1v4[8:1],
{16},8,,1,,,,,6,5,7,7,3,4,2,2,
{32}6,,,,1,2,3,4,8b,,,,1,2,3,4,7b,,,,1,2,3,4,6b,,,,1,2,3,4,
{32}5b,6,7,8,1,2,3,4,5b,6,7,8,1,2,3,4,5b-1[8:1],,,,,,,,8b,,,,,,,,
{16}2/5,,2-5[8:1],3,2,3,2,,8,,7-4[8:1],6,7,6,7,,
{8}1,1/8,1>4[8:1]/8<5[8:1],2/7,,,2,6,
{16}1p5[8:1]/5p1[8:1],2/6,
{16}3/7,4/8,1b>4[8:1]/5b<8[8:1],,,,1/5,,,,1,2,8>3[8:1]*<5[8:1],3,7,,
{16}8bw4[8:1],,,,8,,,,8,7,1>4[8:1]*<6[8:1],6,2,,1bw5[8:1],,
{8},1,,3/5,1h[4:1]/7>5[2:1],,,,
{16}6,,7,,8,,1,,2,,3b,,,,
{16}5,,5,4,3,,,,2h[8:1]/4h[8:1],,,,2h[8:1]/4h[8:1],,,,
{16}5,,5,4,3,,,,2h[8:1]/4h[8:1],,,,2h[8:1]/4h[8:1],,,,
{16}5,,5,4,3,,,,2h[8:1]/4h[8:1],,,,2h[8:1]/4h[8:1],,,,
{16}5,,5,4,3,,,,3h[8:1]/4h[8:1],,,,3h[8:1]/4h[8:1],,,,
{16}5,,5,4,3,,,,2h[8:1]/4h[8:1],,,,2h[8:1]/4h[8:1],,,,
{16}5,,5,4,3,,,,2h[8:1]/4h[8:1],,,,2h[8:1]/4h[8:1],,,,
{16}5,,5,4,3,,,,2h[8:1]/4h[8:1],,,,2h[8:1]/4h[8:1],,,,
{8}3<6[8:1],,,,{16},,,,,,,,
{8}1<5[8:1]*>5[8:1],,1,,5<8[8:1],4,3,2,
{4}1b-3[8:1]*-7[8:1],1bw5[8:1],1b,,
{8}8<4[8:1]*>4[8:1],,8,,4>1[8:1],5,6,7,
{4}8b-4[8:1],8b-2[8:1]*-6[8:1],8bw4[8:1],8b,
{16}3,,3,6,,6,5,,6,,6,3,,3,4,,
{16}3,,5,4/5,,3,3/4,,6,5/6,,4,4b/5b,,,,
{16}4/5,,4/6,,3/6,,2/6,,2/7,,2/8,,1pp1[4:1],8,1,8,
{4}1<2[4:1],,5w1[8:1],5b,
{8}1h[8:1],7h[8:1],5h[8:1],8h[8:1],2h[8:1],4h[8:1],6h[8:1],8h[8:1],
{8}4h[8:1],2h[8:1],1h[8:1],5b,,1/8,8/1,,
{8}6h[4:1],8,5h[4:1],8,6h[4:1],8,3h[4:1],1,
{16}4h[4:1],,1,,3h[8:1],,1,,3,4,2,4,3,5,3,,
{4}8V63[4:1],
{4}3>7[4:1],7V14[4:1],4<8[4:1],8-3[4:1],
{8}3s7[4:1],,,,8b,,
{16}2/7,,5,4,5,2,5,4,5,2,5,4,5,2,5,4,
{16}7-5[16:1],,,1-3[16:1],,,8-4[16:1],,,6-1[16:1],,,7,,8,,
{16}2-4[16:1],,,8-6[16:1],,,1-5[16:1],,,3-8[16:1],,,2,,1,,
{4}2qq5[8:3]/7pp4[8:3],,,2b/7b,
{8},3,3,4,2h[4:1],,4,5,
{8}3h[8:1]/5h[8:1],,2h[8:1]/4h[8:1],,1h[8:1]/3h[8:1],,8>5[4:3],8h[8:9],
{1},
{8},,,,1/2,,2/4,2/4,
{8},3,3,4,2h[4:1],,4,5,
{8}3h[8:1]/5h[8:1],,2h[8:1]/4h[8:1],,1h[8:1]/3h[8:1],,8-5-1-4-2[1:1],8h[8:9],,,,,,,,,{1},
{8}6-3[8:1]/7,7,6/7,7,6-3[8:1]/7,7,6/7,7,
{8}6-3[8:1]/7,7,6bv1[8:1]/7,7,6b-3[8:1]/7,7,6b/7,,
{8}8/7<4[8:1],6,7/8-4[8:1],2,8/7-3[8:1],6,7/8,,
{8}1/2>5[8:1],3,2/1-5[8:1],7,1/2-6[8:1],3,1/2,,
{16}4/5,,4,2,,2,4,,5,7,,7,5,,1/8,,
{16}3/7h[16:3],,,5h[8:1],,6,4,5,3h[16:3],,,1h[8:1],,2,8,1,
{16}7,,1,3,,3,1,,8,6,,6,8,,4/5,,
{16}3/6,,2,1,,7,8,,2-5[32:3]/7-4[32:3],,1/8,,2b/7b,,,,
{8}3-7[8:1]/6,,5-1[8:1],5,,2,3,4,
{8}5h[2:1],6,7,8,1>4[8:1],,1,1<6[8:1],
{16},,1,,1,,,,5/6,,4/7,,3/8,,2,2,
{48},,,1,,,1,,,,,,2,,3,,4,,1,,8,,7,,3,,4,,5,,8,,7,,6,,2b,,,,,,,,,,,,
{8}8v2[8:1],2<6[8:1],,,5>1[8:1],,,,
{8}1v7[8:1],7>3[8:1],,,4<8[8:1],,,,
{16}2b-6[8:1],,1/3,,2/8,,7,8,7,,2,1,2,,3/6,,
{16}7-3[8:1],,6/8,,1/7,,2,1,2,,7,8,7,,3/6<8[8:1],,
{8}1h[2:1]/8>3[4:1],,,,,2h[8:1],3h[8:1],4h[4:1],
{16},,7,6,1,2,3,4,5,6,7,,
{48}8,,,1,,,8,,,1,,,7,,2,,7,,2,,7,,2,,6,,,3,,,6,,,3,,,5,,4,,5,,4,,5,,4,,
{48}6,,,3,,,7,,,2,,,8,,1,,8,,1,,8,,1,,7,,,2,,,6,,,3,,,5,,4,,5,,4,,5,,4,,
{16}5,3,6,2,7,3,8,4,7,3,6,2,5,1,4,8,
{16}3/7>6[16:7],4/8>7[16:7],1>8[16:7]/5,2>1[16:7]/6,3<2[16:7]/7,,,,7,8,1,2,3,4,5,6,
{1}7b,
{4},
E
&inote_2=(160)
{4},,
{4}E2,E3,E4,B2f,
{4}1>5[4:1],,1,1,
{4}1>5[4:1],,1,1pp4[4:3],
{1},
{4}1>5[4:1],,1,1,
{4}1>5[4:1],,1,1,
{4}1>5[4:1],,1,1pp5[4:3],
{1},
{4}8,1,1,,
{16}1/6,,3,4,3>8[8:1],,3,,
{16}6v1[8:1],,6,,4,,,,3/8,,6,5,6<1[8:1],,6,,
{16}3v8[8:1],,3,,5,,,,1/6,,3,4,3>8[8:1],,3,,
{8}6v1[8:1],6,2>5[8:1],2,7>2[8:1],7,4<7[8:1],4,
{16}8,,8,,1/6,,,,
{8}3-8[8:1],3,5-2[8:1],5,1-4[8:1],1,5-8[8:1],5,
{8}2-7[8:1],2,6<3[4:1],6,4,,1,,
{8}6h[8:3],7,8,1h[8:3],8,7,6h[4:1],8,
{8}2h[4:1],8,5<1[4:1],8,3/5,2b,2b,,
{16}6,5,6,3,4,3,7h[4:1],,,,8,7,1,6,2,5,
{16}3,4,3,6,5,6,2h[4:1],,,,1,2,8,3,7,4,
{16}7,5,6,4,5,3,4,2,4,2,5,3,6,4,7,5,
{16}8,8,7,7,6,6,5,5,4,4,3,3,2,2,1,1,
{4}8<4[4:1],4>8[4:1],8<4[4:1],4>8[4:1],
{4}8<4[4:1],4>8[4:1],8,6,
{16}5,,5,4,3,,,,2h[8:1]/4h[8:1],,,,2h[8:1]/4h[8:1],,,,
{16}5,,5,4,3,,,,2h[8:1]/4h[8:1],,,,2h[8:1]/4h[8:1],,,,
{16}5,,5,4,3,,,,2h[8:1]/4h[8:1],,,,2h[8:1]/4h[8:1],,,,
{16}5,,5,4,3,,,,3h[8:1]/4h[8:1],,,,3h[8:1]/4h[8:1],,,,
{16}5,,5,4,3,,,,2h[8:1]/4h[8:1],,,,2h[8:1]/4h[8:1],,,,
{16}5,,5,4,3,,,,2h[8:1]/4h[8:1],,,,2h[8:1]/4h[8:1],,,,
{16}5,,5,4,3,,,,2h[8:1]/4h[8:1],,,,2h[8:1]/4h[8:1],,,,
{8}3<6[8:1],,,,{16},,,,,,,,
{8}4b/7b,,2-6[8:1],1-5[8:1],2,1,,3/4,
{8}2/5,,7-3[8:1],8-4[8:1],7,8,,5/6,
{8}4/7,,4,3,2,1h[4:1],,8,
{8}8qq5[2:1],,1,2,3,4,,,
{983}1-5[8:1],,,,,,,,,,,,,,,,,,,,,,,,,,,,,,,,,,,,,,,,,
{625}2,,,,,,,,,,,,,,,,,,,,,,,,,,
{983}3,,,,,,,,,,,,,,,,,,,,,,,,,,,,,,,,,,,,,,,,,4,,,,,,,,,,,,,,,,,,,,,,,,,,,,,,,,,,,,,,,,,
{3}5,
{983}8-4[8:1],,,,,,,,,,,,,,,,,,,,,,,,,,,,,,,,,,,,,,,,,
{625}7,,,,,,,,,,,,,,,,,,,,,,,,,,
{983}6,,,,,,,,,,,,,,,,,,,,,,,,,,,,,,,,,,,,,,,,,5,,,,,,,,,,,,,,,,,,,,,,,,,,,,,,,,,,,,,,,,,
{12}4,,,,
{12}3/5,,,1/8,
{995}1/8,,,,,,,,,,,,,,,,,,,,,,,,,,,,,,,,,,,,,,,,,,,,,,,,,,,,,,,,,,,,,,,,,,,,,,,,,,,,,,,,,,,
{48}1/8,,,,2,,,7,,,3,,,6,,,4,,,5,,,4,,,,,,
{8}1-5[8:1],1,2-6[8:1],2,3-7[8:1],3,4-8[8:1],4,
{8}5-1[8:1],5,6-2[8:1],6,7-3[8:1],7,8,8,
{983}1,,,,,,,,,,,,,,,,,,,,,,,,,,,,,,,,,,,,,,,,,
{625}2,,,,,,,,,,,,,,,,,,,,,,,,,,
{983}3,,,,,,,,,,,,,,,,,,,,,,,,,,,,,,,,,,,,,,,,,4,,,,,,,,,,,,,,,,,,,,,,,,,,,,,,,,,,,,,,,,,
{625}5,,,,,,,,,,,,,,,,,,,,,,,,,,
{983}6,,,,,,,,,,,,,,,,,,,,,,,,,,,,,,,,,,,,,,,,,7,,,,,,,,,,,,,,,,,,,,,,,,,,,,,,,,,,,,,,,,,
{625}8,,,,,,,,,,,,,,,,,,,,,,,,,,
{983}1,,,,,,,,,,,,,,,,,,,,,,,,,,,,,,,,,,,,,,,,,2,,,,,,,,,,,,,,,,,,,,,,,,,,,,,,,,,,,,,,,,,
{625}3,,,,,,,,,,,,,,,,,,,,,,,,,,
{983}4,,,,,,,,,,,,,,,,,,,,,,,,,,,,,,,,,,,,,,,,,5,,,,,,,,,,,,,,,,,,,,,,,,,,,,,,,,,,,,,,,,,
{625}6,,,,,,,,,,,,,,,,,,,,,,,,,,
{983}7,,,,,,,,,,,,,,,,,,,,,,,,,,,,,,,,,,,,,,,,,8,,,,,,,,,,,,,,,,,,,,,,,,,,,,,,,,,,,,,,,,,
{625}1,,,,,,,,,,,,,,,,,,,,,,,,,,
{983}2,,,,,,,,,,,,,,,,,,,,,,,,,,,,,,,,,,,,,,,,,3,,,,,,,,,,,,,,,,,,,,,,,,,,,,,,,,,,,,,,,,,
{625}4,,,,,,,,,,,,,,,,,,,,,,,,,,
{983}5,,,,,,,,,,,,,,,,,,,,,,,,,,,,,,,,,,,,,,,,,6,,,,,,,,,,,,,,,,,,,,,,,,,,,,,,,,,,,,,,,,,
{625}7,,,,,,,,,,,,,,,,,,,,,,,,,,
{983}8,,,,,,,,,,,,,,,,,,,,,,,,,,,,,,,,,,,,,,,,,
{641}1,,,,,,,,,,,,,,,,,,,,
{639}2,,,,,,,,,,,,,,,,,,,,3,,,,,,,,,,,,,,,,,,,,
{641}4,,,,,,,,,,,,,,,,,,,,5,,,,,,,,,,,,,,,,,,,,
{639}6,,,,,,,,,,,,,,,,,,,,7,,,,,,,,,,,,,,,,,,,,
{641}8,,,,,,,,,,,,,,,,,,,,1,,,,,,,,,,,,,,,,,,,,
{639}2,,,,,,,,,,,,,,,,,,,,3,,,,,,,,,,,,,,,,,,,,
{641}4,,,,,,,,,,,,,,,,,,,,5,,,,,,,,,,,,,,,,,,,,
{639}6,,,,,,,,,,,,,,,,,,,,7,,,,,,,,,,,,,,,,,,,,
{641}8,,,,,,,,,,,,,,,,,,,,1,,,,,,,,,,,,,,,,,,,,
{639}2,,,,,,,,,,,,,,,,,,,,3,,,,,,,,,,,,,,,,,,,,
{641}4,,,,,,,,,,,,,,,,,,,,5,,,,,,,,,,,,,,,,,,,,
{639}6,,,,,,,,,,,,,,,,,,,,7,,,,,,,,,,,,,,,,,,,,
{641}8,,,,,,,,,,,,,,,,,,,,
{4}1b,
{8}3/4<6[8:1],,,,7/5>3[8:1],,8,8,
{8},1/2,2/3,3/4,2/3,7b/8b,1b/6b,,
{8}6/8>2[8:1],,5,5,3/1<7[8:1],,4,4,
{8},7/8,6/7,6/5,7/6,2b/1b,8b/3b,,
{4}1q7[4:1],7p1[4:1],1q8[4:1],8p2[4:1],
{4}2q8[4:1],8p1[4:1],1,8<5[4:1],
{4}5>2[4:1],2<7[4:1],7<2[8:3],,
{8},,7/8,,1/6,6/1,4/3,,
{8},3,3,4,2h[4:1],,4,5,
{8}3h[8:1]/5h[8:1],,2h[8:1]/4h[8:1],,1h[8:1]/3h[8:1],,8>5[4:3],8h[8:9],
{1},
{8},,,,1/2,,2/4,2/4,
{8},3,3,4,2h[4:1],,4,5,
{8}3h[8:1]/5h[8:1],,2h[8:1]/4h[8:1],,1h[8:1]/3h[8:1],,8-5-1-4-2[1:1],8h[8:9],,,,,,,,,{1},
{16}7-4[8:1],,8,1,7,,3,,2-5[8:1],,1,8,2,,6,,
{16}7-4[8:1],,8,1,7,,3,,2,,
{983}2,,,,,,,,,,,,,,,,,,,,,,,,,,,,,,,,,,,,,,,,,
{625}3,,,,,,,,,,,,,,,,,,,,,,,,,,
{983}4,,,,,,,,,,,,,,,,,,,,,,,,,,,,,,,,,,,,,,,,,
{8}5,7/6,
{16},,1/7,,,,3/4,,2/5,,3,4,3,,6,,
{4}7/8p7[4:1],8/7<2[4:1],,8b,
{16}8,,,5/1,,,6/2,,7/3,,,8/4,,,7/6,,
{16},,6b/8b,,2b/3b,,3b/1b,,5b/6b,,4b/3b,,1b/8b,,2,3,
{16}4,5,6,7,8,1,
{16}6/2,5,4,3,2,1,8,7,6/3,4,5,6,7,8,1,2,
{16}7/3,6,5,4,3,2,1,,,,
{16}2/5v2[8:1],3/6,
{16}4/7,,8,,8,,7/4v7[8:1],3/6,2/5,,1,,1,,2,1,
{16}2,,4/5,,7,8,7,,4,,2/6,,4,,
{8}1-4[8:1],5,1-6[8:1],5,1>4[8:1],5,1<6[8:1],5,
{8}1-5[8:1],5,1>4[8:1]*<6[8:1],7,1,,1/5,,
{4}1>4[8:1]/5<8[8:1],1p5[8:1]/5p1[8:1],1>4[8:1]/5<8[8:1],1p5[8:1]/5p1[8:1],
{4}1>4[8:1]/5<8[8:1],1p5[8:1]/5p1[8:1],1V35[8:1]/5V71[8:1],1b/5b,
{16}3/8b,,2/7,,1/6,,,2,7,1,6,3,8,,1/4,,
{16}2/7,,3/8,,1/6,,,,5b/4bv7[16:1],,,3b/4b,,,4b,,
{4}2<7[4:1],7<4[4:1],4>1[4:1],1<6[4:1],
{4}6-1[4:1],1-4[4:1],,,
{16}4-8[4:1]/6h[4:1],,,,,,2h[8:3],,,,,,1,8,7,6,
{16}3h[4:1]/5-1[4:1],,,,,,7h[8:3],,,,,,8,1,2,3,
{16}4/5,,7,8,6,,2,1,3,,8,1,7,2,6,3,
{32}5,6,7,8,1,2,3,4,5,6,7,8,1,2,3,4,5,6,7,8,1,2,3,4,1b/5b,,,,,,,,
{4},
E
&inote_3=(160)
{4},,
{4}E2,E3,E4,B2f,
{4}1>5[4:1],,1,1,
{4}1>5[4:1],,1,1pp4[4:3],
{1},
{4}1>5[4:1],,1,1,
{4}1>5[4:1],,1,1,
{4}1>5[4:1],,1,1pp5[4:3],
{1},
{4}8,1,1,,
{16}8,,2/7,,1,2,8,1,8,,7/2,,1,2,8,1,
{16}8,,7/2,,1,2,8,1,8,,7/2,,1,2,8,1,
{16}5,,3/6,,4,3,5,4,5,,6/3,,4,3,5,4,
{16}5,,3/6,,4,3,5,5/4,,,3/6,,2/7,,,,
{16}1>4[8:1]/5,,,,
{4}1/8<5[8:1],1>4[8:1]/8,1/8<5[8:1],1>4[8:1]/8,
{8}1/8<5[8:1],,1>4[8:1]/8,,1/8b,,
{8}7/8,7/8,1/6,1/6,2>5[8:1]/5<8[8:1],,2/5,,
{16}1/2,,1/2,,3/8<5[8:1],,,,3/8,2,1,8,7,6,5,4,
{8}8-3[8:1],8,4-7[8:1],4,5-2[8:1],5,1-6[8:1],1,
{8}8-3[8:1],8,4-7[8:1],4,5-2[8:1],5,1,1>4[8:1],
{8},8,7,6,4/5,3,2,5<8[8:1],
{16},,4,,3,,2,,1,8,1,8,1,,,,
{8}1-3[8:1],1-5[8:1],1-4[8:1],1-6[8:1],1-5[8:1],1-7[8:1],1-4[8:1],1-6[8:1],
{8}1-3[8:1],1-5[8:1],1-4[8:1],1-6[8:1],1,1,1b,,
{16}5,,5,4,3,,,,2h[8:1]/4h[8:1],,,,2h[8:1]/4h[8:1],,,,
{16}5,,5,4,3,,,,2h[8:1]/4h[8:1],,,,2h[8:1]/4h[8:1],,,,
{16}5,,5,4,3,,,,2h[8:1]/4h[8:1],,,,2h[8:1]/4h[8:1],,,,
{16}5,,5,4,3,,,,3h[8:1]/4h[8:1],,,,3h[8:1]/4h[8:1],,,,
{16}5,,5,4,3,,,,2h[8:1]/4h[8:1],,,,2h[8:1]/4h[8:1],,,,
{16}5,,5,4,3,,,,2h[8:1]/4h[8:1],,,,2h[8:1]/4h[8:1],,,,
{16}5,,5,4,3,,,,2h[8:1]/4h[8:1],,,,2h[8:1]/4h[8:1],,,,
{8}3<6[8:1],,,,{16},,,,,,,,
{4}1-4[8:1]/7-2[8:1],1v6[8:1]/7,1,1b,
{16}7,8,7,,1-7[8:1]/2-6[8:1],,,,1-5[8:1]/2-4[8:1],,,,1/2,,,,
{8}8-5[8:1],2-5[8:1],
{8}8b-4[8:1],2b-6[8:1],8b-3[8:1],2b,8b,,1>8[8:3],,
{4}1b/7h[8:3],,1/7,
{2}1v4[8:1]/7v4[8:1],3-5[8:1]/6-2[8:1],
{2}2v5[8:1]/8v5[8:1],3-7[8:1]/6-4[8:1],
{16}1h[32:1],8h[32:1],2h[32:1],7h[32:1],1h[32:1],8h[32:1],2h[32:1],7h[32:1],
{32}1,2,3,4,5,6,7,8,1,2,3,4,5,6,7,8,1h[64:1],8h[64:1],7h[64:1],6h[64:1],5h[64:1],4h[64:1],3h[64:1],2h[64:1],1h[64:1],8h[64:1],7h[64:1],6h[64:1],5h[64:1],4h[64:1],3h[64:1],2h[64:1],
{4}1/8,7/2,
{4}1/2-6[8:1],2/1-5[8:1],1/8-4[8:1],8/7-3[8:1],
{4}7/8-4[8:1],8/1-5[8:1],1/2-6[8:1],2b,
{4}8/7-3[8:1],7/8-4[8:1],8/1-5[8:1],1/2-6[8:1],
{4}2/1-5[8:1],1/8-4[8:1],8/7-3[8:1],7b,
{16}2,1,3,8,4,7,5,6,
{641}4,,,,,,,,,,,,,,,,,,,,
{639}3,,,,,,,,,,,,,,,,,,,,2,,,,,,,,,,,,,,,,,,,,
{641}1,,,,,,,,,,,,,,,,,,,,8,,,,,,,,,,,,,,,,,,,,
{639}7,,,,,,,,,,,,,,,,,,,,6,,,,,,,,,,,,,,,,,,,,
{641}5,,,,,,,,,,,,,,,,,,,,4,,,,,,,,,,,,,,,,,,,,
{639}3,,,,,,,,,,,,,,,,,,,,2,,,,,,,,,,,,,,,,,,,,
{641}1,,,,,,,,,,,,,,,,,,,,
{8}8h[4:1],
{8},7,6,5,4-8[8:1]/5-1[8:1],,4/5,,
{8}1b/8b,,2,3,4,5,6p2[4:1],,
{8}2>6[4:1],,8,1,8,,2b/7b,,
{16}7<4[8:1],,,,8,1,2>5[8:1],,,,6,,7,,
{16}8-4[8:1],,,,1,,6,,3v1[8:1]/8,3/8v6[8:1],,,,,,,,,
{8},3,3,4,2h[4:1],,4,5,
{8}3h[8:1]/5h[8:1],,2h[8:1]/4h[8:1],,1h[8:1]/3h[8:1],,8>5[4:3],8h[8:9],
{1},
{8},,,,1/2,,2/4,2/4,
{8},3,3,4,2h[4:1],,4,5,
{8}3h[8:1]/5h[8:1],,2h[8:1]/4h[8:1],,1h[8:1]/3h[8:1],,8-5-1-4-2[1:1],8h[8:9],,,,,,,,,{1},
{4}2b-7[8:1]/8h[4:1],2,1h[4:1]/6b-3[8:1],6,
{16}2,1,2,1,3h[8:1],,4h[8:1],,5h[8:1],,6h[8:1],,7h[8:1],,8,,
{4}1h[4:1]/7b-2[8:1],7,3b-6[8:1]/8h[4:1],3,
{16}7,8,7h[8:1],,6h[8:1],,5h[8:1],,4h[8:1],,3h[8:1],,2h[8:1],,1,,
{16}8,7,6,5,8,7,6,5,8,7,6,5,8,7,6,5,
{16}8,1,8,1,8,1,8,1,8,1,8,1,8,,,,
{8}2q6[8:1],2,7p3[8:1],7,1q5[8:1],1,8p4[8:1],8,
{8}3,
{983}3,,,,,,,,,,,,,,,,,,,,,,,,,,,,,,,,,,,,,,,,,
{625}2,,,,,,,,,,,,,,,,,,,,,,,,,,
{983}1,,,,,,,,,,,,,,,,,,,,,,,,,,,,,,,,,,,,,,,,,
{16}7,1,7,1,8w4[8:1],,,,8b,,,,
{8}7-5[8:1],2-8[8:1],7,2,,2-8[8:1]/7-4[8:1],8,,
{8},2-8[8:1]/7-3[8:1],8,,,4,2/5,,
{16}1/5,,1/5,,5/1,2/6,3/7,4/8,5/1,,5/1,,8/4,3/7,2/6,1/5,
{16}8/4,,4/8,,1v7[8:1]/5v3[8:1],2/6,3/7,8/4,,,,,{4},
{8}2/6,3/7,2-5[8:1]/6-1[8:1],3/7,2/6,,3/7,2/6,
{16}3>8[8:1]/7,,2/6,,3/7,,,6,6,,5,,4,,,,
{8}3bqq6[2:1]/7b,,
{4}5,6pp3[2:1],4,3qq6[2:1],
{4}5,6pp3[2:1],4,3qq6[2:1],
{4}5,6pp3[2:1],4,3qq6[2:1],
{4}5,6,4,
{8}4/5,6,4/5,3,4/5,7,4/5,2,
{8}4/5,8,4/5,1,3/4,8,5/6,1,
{8}3/4,6/7,1/3,4/5,6/8,2/3,5/7,1/8,
{16}3,4,8,7,5,6,2,1,4,5,8,7,1b-4[8:1]/6b>4[8:1],,1b/6b,,
{4},
E
&inote_4=(160)
{4},,
{4}E2,E3,E4,B2f,
{4}1>5[4:1],,1,1,
{4}1>5[4:1],,1,1pp4[4:3],
{1},
{4}1>5[4:1],,1,1,
{4}1>5[4:1],,1,1,
{4}1>5[4:1],,1,1pp5[4:3],
{1},
{4}8,1,1,,
{8}2-4[8:1]/7,5,
{8}2/7-3[8:1],6,2-6[8:1]/7,1,2/7-5[8:1],8,2-6[8:1]/7,4,
{8}2/7,1,3,4/5,3/6,1/8,
{16}1,,8,1,,1,,8,1,,8,1,,1,,8,
{16}1,,8,1,,1,,8,1,,1,,1,,1,,
{16}1/8,,7-4[16:1],8,7,,7/8,,2-5[16:1],1,2,,1/2,,8-4[16:1],1,
{16}8,,1/8,,1-5[16:1],8,1,,1/8,,8,,7,,6,,
{8}1-5[8:1]/2-5[8:1],3,
{8}1b/2b,,7-4[8:1]/8-4[8:1],6,7b/8b,,1-5[8:1]/2-5[8:1],3,
{8}1b/2b,,7-4[8:1]/8-4[8:1],6,7b/8b,,
{4}1>4[8:1]/5<8[8:1],
{4}1p5[8:1]/5p1[8:1],1>4[8:1]/5<8[8:1],1p5[8:1]/5p1[8:1],1>4[8:1]/5<8[8:1],
{4}1p5[8:1]/5p1[8:1],1>4[8:1]/5<8[8:1],5b/1b,
{4}4>1[8:1]/8<5[8:1],
{4}4q8[8:1]/8q4[8:1],4>1[8:1]/8<5[8:1],4q8[8:1]/8q4[8:1],4>1[8:1]/8<5[8:1],
{4}4q8[8:1]/8q4[8:1],4>1[8:1]/8<5[8:1],4b/8b,
{8}8<5[8:1],5-1[8:1],1>4[8:1],4-8[8:1],8<5[8:1],5-1[8:1],1>4[8:1],4-8[8:1],
{8}8<5[8:1],5-1[8:1],1>4[8:1],4-8[8:1],8<5[8:1],,1b,,
{16}5,,5,4,3,,,,2h[8:1]/4h[8:1],,,,2h[8:1]/4h[8:1],,,,
{16}5,,5,4,3,,,,2h[8:1]/4h[8:1],,,,2h[8:1]/4h[8:1],,,,
{16}5,,5,4,3,,,,2h[8:1]/4h[8:1],,,,2h[8:1]/4h[8:1],,,,
{16}5,,5,4,3,,,,3h[8:1]/4h[8:1],,,,3h[8:1]/4h[8:1],,,,
{16}5,,5,4,3,,,,2h[8:1]/4h[8:1],,,,2h[8:1]/4h[8:1],,,,
{16}5,,5,4,3,,,,2h[8:1]/4h[8:1],,,,2h[8:1]/4h[8:1],,,,
{16}5,,5,4,3,,,,2h[8:1]/4h[8:1],,,,2h[8:1]/4h[8:1],,,,
{8}3<6[8:1],,,,{16},,,,,,,,
{8}5/7,8,1-5[8:1]/3,,1-3[8:1]*-7[8:1],,,,
{8}2/4,1,6/8-4[8:1],,8-2[8:1]*-6[8:1],,,,
{16}4/5,,2qq5[8:3],1,2,,7,,,,6b,,6b,,,,
{16}4/5,,2qq5[8:3],1,2,,7,,,,6b,,6b,,,,
{8}7/8,7-3[8:1]/8,1/6,7/8,1,1-5[8:1],,1/8h[4:1],
{8},3,4>1[8:1]/8<5[8:1],,4/8,,7/8,,
{8}8-4[8:1],8,1-5[8:1]/8,1,1/7-4[8:1],7,2/7,2,
{16}1b,8,1,8,2b,7,2,7,3b,6,3,6,4b,,,,
{12}6/8-3[16:1],,8,4-7[16:1],,4,8-3[16:1],,8,4-7[16:1],,4,
{12}2-5[16:1],,2,6-1[16:1],,6,2-5[16:1],,2,1,,1,
{12}2b/8b,,6,5/6,,3,3/4,,1/8,1h[6:1]/8,,4,
{12}2,5,3,6,4,7,5w1[8:1],,,5b,,,
{16}1,8,1,8,2,7,2,7,1,8,2,7,3,6,4,5,
{16}3,6,2,7,1,8,2,7,1b-4[8:1]*-6[8:1],,,,1b,,,,
{8}3/2-5[8:1],2,1/2,8,6/7-4[8:1],7,7/8,1,
{8}3/2-5[8:1],2,1/2,8,6/7-4[8:1],7,7/8,,
{16}6,5,7,4,,1/2,1/2,,3,4,2,5,,7/8,7/8,,
{16}4,5,3,6,2,7,1,8,
{641}1bw5[8:1],,,,,,,,,,,,,,,,,,,,
{639}2b,,,,,,,,,,,,,,,,,,,,3b,,,,,,,,,,,,,,,,,,,,
{641}4b,,,,,,,,,,,,,,,,,,,,5b,,,,,,,,,,,,,,,,,,,,
{639}6b,,,,,,,,,,,,,,,,,,,,7b,,,,,,,,,,,,,,,,,,,,
{641}8b,,,,,,,,,,,,,,,,,,,,
{8}1b,,
{8},3,3,4,2h[4:1],,4,5,
{8}3h[8:1]/5h[8:1],,2h[8:1]/4h[8:1],,1h[8:1]/3h[8:1],,8>5[4:3],8h[8:9],
{1},
{8},,,,1/2,,2/4,2/4,
{8},3,3,4,2h[4:1],,4,5,
{8}3h[8:1]/5h[8:1],,2h[8:1]/4h[8:1],,1h[8:1]/3h[8:1],,8-5-1-4-2[1:1],8h[8:9],,,,,,,,,{1},
{8}4/5>2[8:1],,5/6,7,7/8<5[8:1],,1/8,2,
{16}3/5,,,4/7,,,1/2-6[8:1],,6-2[8:1],,,,8,,8,,
{16}8/2h[4:1],7,6,5,4,3,2,1,8/2h[4:1],7,6,5,4,3,2,1,
{16}8/2h[4:1],7,6,5,4,3,2,1,8,1,8,1,7/2,,,,
{16}1,,,3,4,,8,,,6,5,,1,,,3,
{16}4,,8,,,6,5,,3,5,1,7,4,6,2,8,
{8}4h[8:1]/5h[8:1],,1h[8:1]/8h[8:1],,3h[16:1]/7h[16:1],3h[16:1]/7h[16:1],3h[16:1]/7h[16:1],3h[16:1]/7h[16:1],
{12}8<3[4:1],8,8,3V14[4:1]*V16[4:1],,,,,,,,,
{8}6/8,6,5/3,5,8/6,6,5/3,5,
{8}6/8,6,8/6,6,5/3,,3/5,,
{8}3/7<4[8:1],,3>8[8:1],3,,5,6,7,
{8}3/8,2/7,1<6[8:1]*>4[8:1]/6,1,1b,,1,,
{8}3/8-3[8:1],1,7/8,4,
{8}6/1-6[8:1],8,1/2,5,4/7V51[8:1],3,2V48[8:1],,
{16}1bw5[8:1],,,,,,,,
4v7[8:1]/5,,,,
{4}6<1[8:1],3>8[8:1],5,1-5[8:1]/8-6[8:1],
{4}1-3[8:1]/8-4[8:1],1-5[8:1]/8-6[8:1],1/8,2qq5[8:3]/7pp5[8:3],
{4},,1/8,4/5,
{8}4h[2:1]/8b,8b,8b,8b,8b,,
{8}3/6,3/6,2/7,2/7,1/8,1/8,
{16}8-4[8:1],1,7,2,8,,1-5[8:1],1,,,1/5,,8,7,6,5,
{48}4,,,5,,,4,,,5,,,4b,3,2,1,,,,,,,,,5b,6,7,8,,,,,,2b,3,4,,,,,,,7b,6,5,,,,
{32}1,2,3,4,5,6,7,8,1,2,3,4,5,6,7,8,1,2,3,4,5,6,7,8,1,2,3,4,5,6,7,8,
{4}1b/5b,
E
&inote_5=(160)
{4},,
{4}E2,E3,E4,B2f,
{4}1>5[4:1],,1,1,
{4}1>5[4:1],,1,1pp4[4:3],
{1},
{4}1>5[4:1],,1,1,
{4}1>5[4:1],,1,1,
{4}1>5[4:1],,1,1pp5[4:3],
{1},
{4}8,1,1,3b/6b-8[8:1],
{8}5-1[8:1],,6-8[8:1],,5,4b,4b-8[8:1]/8b,,
{4}5-1[8:1],4-8[8:1],5,3/7,
{8}3<6[8:1]/7,2,1/3,7,2/6>3[8:1],7,6/8,1,
{8}2<7[8:1]/5,3,2/4,6,4/7>2[8:1],6,5/7,3,
{8}3qq7[8:3],,,,4b,,4,3,
{32}2q5[4:1],3,4,5,6,7,8,1,2,,,,,,,,8b-4[16:1],,,,,,2b/8,,,,,,2/7b,,,,
{8}1>5[8:1],1,7,7,8p4[8:1],8,2,2,
{16}1q6[8:1],,1,,7,,7,,8,1,8,,2b/7b,,1,,
{8}8/1-5[8:1],3,1/8-6[8:1],7,8/1-5[8:1],3,1/8-4[8:1],6,
{8}8/1-3[8:1],2,1/8-4[8:1],6,8/1-5[8:1],3,1/8-6[8:1],7,
{8}2>5[8:1]/8,1,2/8-4[8:1],7,2-6[8:1]/8,1,2/7<4[8:1],8,
{8}1-5[8:1]/7,3,1/7-3[8:1],8,1bw5[8:1]/7,,,,
{12}2b-5[10000:833],
{995}2,,,,,,,,,,,,,,,,,,,,,,,,,,,,,,,,,,,,,,,,,,,,,,,,,,,,,,,,,,,,,,,,,,,,,,,,,,,,,,,,,,,
{12}2,7b-4[10000:833],
{995}7,,,,,,,,,,,,,,,,,,,,,,,,,,,,,,,,,,,,,,,,,,,,,,,,,,,,,,,,,,,,,,,,,,,,,,,,,,,,,,,,,,,
{12}7,1b-5[10000:833],
{995}1,,,,,,,,,,,,,,,,,,,,,,,,,,,,,,,,,,,,,,,,,,,,,,,,,,,,,,,,,,,,,,,,,,,,,,,,,,,,,,,,,,,
{12}1,8b-4[10000:833],
{995}8,,,,,,,,,,,,,,,,,,,,,,,,,,,,,,,,,,,,,,,,,,,,,,,,,,,,,,,,,,,,,,,,,,,,,,,,,,,,,,,,,,,
{12}8,
{12}3-8[10000:833],,3,6-1[10000:833],,6,4-8[10000:833],,4,5,,,
{16}5,,5,4,3,,,,2h[8:1]/4h[8:1],,,,2h[8:1]/4h[8:1],,,,
{16}5,,5,4,3,,,,2h[8:1]/4h[8:1],,,,2h[8:1]/4h[8:1],,,,
{16}5,,5,4,3,,,,2h[8:1]/4h[8:1],,,,2h[8:1]/4h[8:1],,,,
{16}5,,5,4,3,,,,3h[8:1]/4h[8:1],,,,3h[8:1]/4h[8:1],,,,
{16}5,,5,4,3,,,,2h[8:1]/4h[8:1],,,,2h[8:1]/4h[8:1],,,,
{16}5,,5,4,3,,,,2h[8:1]/4h[8:1],,,,2h[8:1]/4h[8:1],,,,
{16}5,,5,4,3,,,,2h[8:1]/4h[8:1],,,,2h[8:1]/4h[8:1],,,,
{8}3<6[8:1],,,,{16},,,,,,,,
{16}1/8,,1,8,1,,1/3,,1/4,,1/5,,1/6,,1/7,,
{16}1/8,,8,1,8,,6/8,,5/8,,4/8,,3/8,,2/8,,
{16}2/1,,2,1,3,8,4,7,5,,4/6,,3,,
{16}6,5,6,,7,,2/4,,3,,5/7,,6,,3,,5,,
{16}3/6,,6,5,7,4,8,3,4/5,,3,4,2,
{16}5,1,6,4/5,,6,5,7,4,8,3,3,,3/4,,5/6,
{16},,,
{4}4>2[12:1]/5p1[12:1],4q8[12:1]/5<7[12:1],4>2[12:1]/5p1[12:1],4/5,
{12}7b/8b,,1/3,,6/8,5,3b/4b,,5/7,,2/4,,
{16}3b/7b,,5/6,,2,1/3,,7/8,,1/6,,3,2/4,,1/8,,
{16}7,,5/6,,2/4,2/4,,5/6,,4/7,,3,2/4,,1/8,,
{16}3b>8[8:1],,,4,3,,7,,6b<1[8:1],,,5,6,,2,,
{16}3b>8[8:1],,,4,3,,7,,7b/8b,,1b/6b,,2b/5b,,3b/4b,,
{16}1/7,2/6,3/5,,6,5,,3,4,,7,5,,2,4,,
{4}8b-4[8:1],8b>3[8:1]*<5[8:1],8bw4[8:1],8b,
{8}2<7[8:1]/6>3[8:1],3<6[10000:833]/7>2[10000:833],,,,2/6,3/7,8/4,
{8}3>8[8:1]/7<4[8:1],4<7[10000:831]/8>3[10000:833],,,,7/3,6/2,1/5,
{8}2<7[8:1]/6>3[8:1],3<6[10000:833]/7>2[10000:833],,,,2/6,1/5,4/8,
{8}1<6[8:1]/5>2[8:1],2>5[10000:831]/6<1[10000:833],,,,7/3,8/4,1b/5b,
{8},3,3,4,2h[4:1],,4,5,
{8}3h[8:1]/5h[8:1],,2h[8:1]/4h[8:1],,1h[8:1]/3h[8:1],,8>5[4:3],8h[8:9],
{1},
{8},,,,1/2,,2/4,2/4,
{8},3,3,4,2h[4:1],,4,5,
{8}3h[8:1]/5h[8:1],,2h[8:1]/4h[8:1],,1h[8:1]/3h[8:1],,8-5-1-4-2[1:1],8h[8:9],,,,,,,,,{1},
{16}3/7,,2,1,2,,4/5,,3-1[8:1]/8-4[8:1],,2/7,,3/8,,,,
{16}2/6,,7,8,7,,4/5,,1-5[8:1]/6,,2,,1/8-4[8:1],,7,,
{16}3-1[8:1]/8,,,1-5[8:1],,,5,,6-8[8:1],,,8-4[8:1],,,4,,
{4}1-5[8:1],1<6[8:1]*>4[8:1],1,1,
{8}1-4[8:1]*-6[8:1]/8,,,,4h[16:1]/5h[16:1],5h[16:1]/6h[16:1],4h[16:1]/5h[16:1],3h[16:1]/4h[16:1],
{8}4h[16:1]/7h[16:1],1h[16:1]/5h[16:1],6h[16:1]/8h[16:1],2h[16:1]/4h[16:1],1/8-4[8:1]*z4[8:1],,,,
{16}2,1,3,8,4,7,5,6,3,4,2,5,1,6,8,7,
{16}2,1,3,1,4,1,5,1,5,6,5,7,5,8,5,,
5,7,5,7,4,6,4,6,
{16}3,5,3,5,2,4,2,4,3,4,3,4,2,5,2,5,
{16}3,4,2,5,1b,,,,
{16}3,4,2,2,6,5,7,7,3,5,2,7,4,6,1,5,
{32}2/6h[2:1],,,,2,,,,2,,,,2,,,,8,7,6,5,4,3,2,1,4b/8b,,,,,,,,
{24}8-4[8:1],,,1-3[8:1],,,8-6[8:1],,,1,,,8,,,1,2,3,4/7,,,8,,,
{32}8-3[8:1]*-5[8:1],7,6,5,4,3,2,1,8b,,,,,,,,4-1[8:1]/5-8[8:1],,,,3/6,,,,4b/5b,,,,,,,,
{16}4/5,,7,8,6,,2,1,3,,8,1,7,2,6,3,
{32}5,6,7,8,1,2,3,4,5,6,7,8,1,2,3,4,5,6,7,8,1,2,3,4,1b/5b,,,,,,,,
{16}8,,2h[16:1],1,,7h[16:1],8,,1/8,2/7,3/6,,4/5,3/6,2/7,,
{16}1,,7h[16:1],8,,2h[16:1],1,,1/8,2/7,3/6,,1b,,,,
{12}1b/5,2,3,4/8,5,6,3/7,8,1,2/6,3,4,
{12}5/8b,7,6,1/5,4,3,2/6,1,8,3/7h[4:1],,,
{16}2,5,3,4,8,7,1,6,2,1,3,8,2,1,2,1,
{32}2b,3,4,5,6,7,8,1,2,3,4,5,6,7,8,1,2/5b,4,3,2,1,8,7,6,5b,,,,,,,,
{4},
E
&inote_6=(160)
{4},,
{4}E2,E3,E4,B2f,
{4}1>5[4:1],,1,1,
{4}1>5[4:1],,1,1pp4[4:3],
{1},
{4}1>5[4:1],,1,1,
{4}1>5[4:1],,1,1,
{4}1>5[4:1],,1,1pp5[4:3],
{1},
{4}8,1,1,,
{24}1/6h[8:1],2,3,4,,,1/4h[8:1],8,7,6,,,1/6h[8:1],2,3,4,,,1/4h[8:1],8,7,6,,,
{16}2/4,,7,8,6,1,5,2,3b/4b,,7/8,,2b/6b,,,,
{24}7,6,5,8,1,2,6,5,4,1,2,3,4b/8b,,,,,,5w1[8:1],,,4/6,,,
{8}5,,4w8[8:1],3/5,4,,5,4,
{16}8/4-7[16:1],3/7-4[16:1],6/2,,,,,,1/5-2[16:1],6/2-5[16:1],7/3,,,,,,
{16}4-7[16:1]/8-3[16:1],3-8[16:1]/7-4[16:1],2/6,,,,,,1/5,2/6,3/7,
{16},2/6,2/6,,3,
{32}7,,5,,6,,4,,5,,3,,4,,,,
{8}2/5,1/8,4-7[8:1]/7,5,2/4-1[8:1],3,4/8-4[8:1],7,
{4}8,4b/8b,
{16}1-5[8:1]/8,,2,,1/7-4[8:1],,8,,2>5[8:1]/7,,1,1,2/8-4[8:1],,7,,
{16}2-7[8:1]/8,,1,1,2>5[8:1]/6<1[8:1],,5,,2/6,,,,3/7,,,,
{16}3/8,,2,1,2-5[8:1],1,2,,2/8-4[8:1],,7,,1/8,,2,,
{16}1/6,,7,8,7-4[8:1],8,7,,1-5[8:1]/7,,2,,1/8,,7,,
{24}8-4[8:1],,,4-8[8:1],,,,,,1,,,1>4[8:1],,,,,,8,7,6,5,,,
{8},8v5[8:1],1-3[8:1],8-6[8:1],1v4[8:1],8,1,,
{16}5,,5,4,3,,,,2h[8:1]/4h[8:1],,,,2h[8:1]/4h[8:1],,,,
{16}5,,5,4,3,,,,2h[8:1]/4h[8:1],,,,2h[8:1]/4h[8:1],,,,
{16}5,,5,4,3,,,,2h[8:1]/4h[8:1],,,,2h[8:1]/4h[8:1],,,,
{16}5,,5,4,3,,,,3h[8:1]/4h[8:1],,,,3h[8:1]/4h[8:1],,,,
{16}5,,5,4,3,,,,2h[8:1]/4h[8:1],,,,2h[8:1]/4h[8:1],,,,
{16}5,,5,4,3,,,,2h[8:1]/4h[8:1],,,,2h[8:1]/4h[8:1],,,,
{16}5,,5,4,3,,,,2h[8:1]/4h[8:1],,,,2h[8:1]/4h[8:1],,,,
{8}3<6[8:1],,,,{16}3,4,3,,1-5[8:1]/8,,,,
{16}1-7[16:1]/5-3[16:1],,,,,,,,6,5,6,,7/8-4[8:1],,1,,
{16}4-6[16:1]/8-2[16:1],,,,,,,,3,4,3,,1/2,,8,,
{8}2-6[8:1]/8-4[8:1],8/2,2>5[8:1]/8<5[8:1],,,,,7b/3b,
{16},,1/4,5/2,6/3,,8/5,4/7,6/3,,1/8,7/2,6b/3b,,,,
{16}5,4,5,4,5h[8:1],,3,3h[8:1],,1,2,8,1,7,8,6,
{16}4,5,4,5,4h[8:1],,6,6h[8:1],,8,7,1,8,2,1,3,
{16}4,5,3,6,1,8,2,7,4,6,3,5,1,7,2,8,
{32}1,2,3,4,5,6,7,8,1,2,3,4,5,6,7,8,1,2,3,4,5,6,7,8,1,2,3,4,5,6,7,8,
{4}1b-5[8:1],
{4}1b<6[8:1]*>4[8:1],1bw5[8:1],1b-3[8:1]*-7[8:1],1b-4[8:1]*-5[8:1],
{4}1b-6[8:1]*-7[8:1],1bw5[8:1],1b,
{16}3,3/4,,1,2/8,,4/5,,6,5/6,,8,1/7,,4/5,,
{16}2,1,3,3,7,8,6,,4pp6[8:1]/5qq3[8:1],,2/7,,4/5,,,,
{16}1/5,2,3/5,4,1/5,6,1/7,8,1/5,2,3/5,4,1/5,6,1/7,8,
{16}1/5,,3/7,,2/5,2/5,,4/8<5[32:3],,1/8,2,3,4b,,,,
{16}5/7h[16:3],4,3,2,1/7,,7/1h[16:3],6,
{16}5,4,1/3,,3/1h[16:3],4,5,6,1/7,,1/7h[16:3],2,3,4,5/7,,
{16}5-1[8:1]/7-3[8:1],,,,5/7,,,,
{8}2/4,5/7,
{16}3,6,3,6,4/5,,
{24}4/5,3/6,2/7,
{8}1/8,
{24}1/8,2/7,3/6,
{8}4b-1[16:1]/5b-8[16:1],,4/5,,3-6[8:1]/7-2[8:1],1/5,3b/7b,,
{8},3,3,4,2h[4:1],,4,5,
{8}3h[8:1]/5h[8:1],,2h[8:1]/4h[8:1],,1h[8:1]/3h[8:1],,8>5[4:3],8h[8:9],
{1},
{8},,,,1/2,,2/4,2/4,
{8},3,3,4,2h[4:1],,4,5,
{8}3h[8:1]/5h[8:1],,2h[8:1]/4h[8:1],,1h[8:1]/3h[8:1],,8-5-1-4-2[1:1],8h[8:9],,,,,,,,,{1},
{16}2,1,2,1,2,,7,8,7,8,7,,1,8,1,,
{16}6,5,6,5,6,,3,4,3,4,3,,{24}5,4,5,4,,,
{8}5/1-3[8:1],3,5/1-6[8:1],7,5/1-4[8:1],3,5/1-7[8:1],7,
{16}5/1-3[8:1],,3,,5/1-5[8:1],,7,,1/5,,,,5,6,7,8,
{16}1,2,3,4,1,2,3,4,8,7,6,5,4,3,2,1,
{16}6/8-5[8:1],,7,,
{8}2/8-3[8:1],1,6/8-4[8:1],7,2/8,,
{16}4b/5,3,2,1,4,5,6,7,1,2,3,4,1,8,7,6,
{16}4b/5,3,2,1,7/8,6,5,4,1b,2,3,4,5/6,7,8,1,
{16}2-6[8:1],1,,1,2,,8,,7-3[8:1],8,,8,7,,1,,
{48}2/5,,,,,,2/5,,3/6,,4/7,,5/8,,,,,,4/7,,3/6,,2/5,,1/4h[8:3],,,,,,,,,,,,8,,,,,,5,,,,,,
{4}1>4[8:1]/5<8[8:1],1p5[8:1]/5p1[8:1],1>4[8:1]/5<8[8:1],1p5[8:1]/5p1[8:1],
{4}1>4[8:1]/5<8[8:1],1p5[8:1]/5p1[8:1],1V35[8:1]/5V71[8:1],1b/5b,
{16}1/8,,5,5/7,,4,4/5,,
{16}2-6[8:1]/4-8[8:1],,,,2/4,,,,1/8,,4,2/4,,5,4/5,,
{4}5-1[8:1]/7-3[8:1],5/7,
{16}4,5,3,3,6,5,7,7h[16:3],,,8,7,1,7,2,7,
{32}3/6-1[8:1],,,,5,,,,3-8[8:1]/6,,,,4,,,,3/7,,6,,5,,4,,1,2,3,4,5,6,7,8,
{48}1/5h[1:0],2,3,4,5,6,7,8,1/5h[1:0],2,3,4,5,6,7,8,1h[1:0]/5h[1:0],,,,,,,,3h[1:0]/7,6,5,4,3,2,1,8,3h[1:0]/7,6,5,4,3,2,1,8,3h[1:0]/7h[1:0],,,,,,,,
{16}1pp5[4:1]/5pp1[4:1],,,,,,,,,,2,4,2,7,5,7,
{48}4,,5,,4,,5,,4,,5,,
{24}3,6,3,6,3,6,2,7,2,7,2,7,1,8,1,8,1,8,2,7,3,6,4,5,
{32}4,3,2,1,8,7,6,5,4,3,2,1,8,7,6,5,4,3,2,1,8,7,6,5-2[142.3#512:57],4-2[8:1],,,,,,,,
{4}5/4-8[8:1],4-7[8:1]/5-7[8:1],4/5-1[8:1],
{4}4-2[8:1]/5-2[8:1],5/4-8[8:1],4-7[8:1]/5-7[8:1],,
{4},
E
&inote_7=
