&title=FIRE FIRE
&artist=StripE
&first=0.05
&lv_5=13+
&des_5=白-ster
&inote_5=
(150){4},{1},{8}3,
4,3,6,{16}3,5,{8}3,
2/6,2/6,3,6,{16}3,4,{8}3,{16}3,4,{8}3,
3/5,3/5,4,6,3,5,{16}6,5,{8}6,
{16}6,4,{8}6,8,{16}2,1,2,1,2,1,2,8,2,8,
{4}2,{8}2/5,8,7/4,1,{16}8,1,8,2,
7,2,6,3,{8}6,4/3,7,5/4,{16}3,6,{8}3,
4/2,5/7,{16}1,1,{8}1,{16}1,1,{8}1,{16}1,1,1,1,
1-5b[8:1],1,1,1,{4}1b,,,,{16}3/4,
{8},{16}3/4,{8},3/4,5/2,4/7,
,3h[16:1]/6h[16:1],3/6,2/7,,8/1,{16}7,2,7,2,
{4}7,{16}7/4,{8},{16}7/2,{8},8/4,2/6,5/3,
,2h[16:1]/8h[16:1],{4}8/2,{8},{16}1,1,{8}1,{16}1,7,
{4}3,{16}1/3,{8},{16}8/6,{8},1/4,2/7,5/4,
,{16}5,4,{8}5h[8:1],3h[8:1],7-3b[8:1],6/2h[8:1],{4}7b,
1/3,{16}8/1,{8},{16}6/3,{8},5/4,2/7,8/1,
,{16}6qq2b[8:5],4,{4}5bh[8:5],,,,{16}4/1,
{8},{16}2/7,{8},1/6,8/3,1/5,
,{16}2,4,{8}2,8/5,,7/2,5/4,5/4,
{4}7/2,{16}6,{8},{16}7/5,{8},6,6/2,8/4,
,{16}7,4,{8}6h[8:1],3,,{16}5,5,{8}5,{16}5,4,
{4}6,{8}8-5b[8:1]/1-4b[8:1],2/7,{4},{16}6,3,{8}6,
{4}2/7-5b[8:1],7/2h[8:1],{8},{16}4,4,{8}4,{16}4,6,
{4}2,{8}4/2,8,7/5,1,{4}8z4b[8:1]/1s5b[8:1],
8b/1b>1>1>5b[8:5],1b/6bh[8:5],,,,{32}1b,
2b,3b,4b,5b,6b,7b,8b,1b,2b,3b,4b,5b,6b,7b,8b,1b,2b,3b,4b,5b,6b,7b,8b,
1b,2b,3b,4b,5b,6b,7b,8b,{4}1bs5b[1:1],{1},{4},{16},{32},2,
1,2,{16}1,
{8}8b/3b,2b/6b,{4},,,{16},,,{32},7,
8,7,8,7,,,,4,5,4,5,4,,,,6,3,6,{16}3,{32},,,8,
3,8,3,8,{8}3,{16}7,5,7,5,{8}7,{16}3,5,{8}3h[8:1],4h[8:1],
2h[8:1],5h[8:1],1h[8:1],{16}6,6,{8}6,{16}7,1,{32}7,{16},{32}2,1,2,{16}1,
{8}1/3b,1/4b,{16}1/2b,8,7,6,{8}5,{16}3,4,{8}3h[8:1],5,
6h[8:1],4,{16}5,3,5,3,5,{32}2b,6,2,6,{16}2,,3/5,,{32}8b,7,
6,5,,1b,2,3,{16}4,5,3,5,2,6,2,6,2,7,3,7,3,
6,2,6,2,7,4,7,4,6,3,6,3,5,2,5,{32}1b,2,
3,4,,8b,7,6,{16}5,3,6,2,7,1,8,{32}1b,2,3,4,{16}7,3,7,3,
6,2,{32}8b,7,6,5,{16}2,7,2,6,2,5,{32}2b,6,2,6,{16}2,7,2,8,
2,1,{32}2b,8,2,8,{16}2,1,{8}2,{16}7,8,{8}7,{16}3,4,{8}2,
{16}6,5,{8}7,2/6,{16}3,4,{8}5,2/6,{16}3,4,{8}5,
2/6,8/4,{16}3,4,{8}5,{16}3,4,{8}5,{16}3,4,{8}5,
{16}3,4,{32}5b,5,{16}5,4,4,{8}4,{16}5,5,{8}5,{16}3,4,3,4,
3,4,{32}3b,3b,{16}3b,{1},{32}2b,
3,{16}4,{32}7b,6,{16}5,{32}1b,2,{16}3,{32}8b,7,{16}6,{32}2b,3,{16}4,{32}7b,6,{16}5,
{32}1b,2,{16}3,{32}8b,7,{16}6,2,1,{8}2,{16}3,4,{8}3,5h[8:1],6h[8:1],
7h[8:1],8bh[8:1],1h[8:1],2h[8:1],3h[8:1],4h[8:1],5h[8:1],6h[8:1],
,{16}6,5,7,4,8,3,{8}8,{16}2,6,{8}2h[8:1],1h[8:1],
8h[8:1],7h[8:1],6b,{16}6,5,{8}6,7/4,{16}5,3,{8}5,
4b,{16}2,5,2,7,2,8,{8}2,{16}3,4,{8}3h[8:1],4h[8:1],
3h[8:1],5h[8:1],3,{16}3,4,{8}3,{16}6,5,{8}7h[8:1],3h[8:1],
8,{16}1,8,2,7,3,6,4,7,4,5,4,7,4,5,
4-8b[8:1],7,4,5,{4}4b,,,,{16}5,
4,6,3,7,2,8,1,{8}8h[8:1],2h[8:1],
{16}6h[8:1],{8},{16}4,{8}6h[8:1],3,{16}6h[8:1],{8},{16}2,{8}6h[8:1],7h[8:1],
{16}8h[8:1],{8},{16}1,8,1,8,2,{8}7,{16}3,6,{8}3h[8:1],6,
{16}3h[8:1],{8},{16}7,{8}3b,{16}6,3,{8}6,8/2,5h[8:1],4h[8:1],
{16},5,3,6,2,7,2,7,2,6,2,6,2,5,2,5,
2,4,2,4,2,3,2,3,2,4,3,5,4,6,5,6,
4,6,3,6,2,6,1,6,8,6,7,6,8,7,1,8,
2,8,3,8,4,7,4,6,4,5,3,4,2,3,2,4,
2,5,2,6,2,{8},{16}2,{8},2,1/3,7/5,
,2h[16:1]/6h[16:1],2/6,7/3,,1/5,{16}7,8,7,8,
{4}7,{16}1,{8},{16}1,{8},1,8/2,6/4,
5,{16}5,5,{8}5,5,{16},3,4,3,,2,5,3,
{4},{16}8,{8},{16}8,{8},8,1/7,6/2,
,{16}4,4,{8}4,3/5,6/2,3/7,{4}8-5[8:1]/1-4[8:1],
1/8,{16}5,3,5,3,6,3,6,3,6,2,6,2h[16:5],
6h[4:1],{4},{16}7/3,8/4,1/5,6,7,8,1,2,3,4/7,6,
5,4,3,2,1,3,1,2,{8}1,{16}3,8,{8}3,1h[8:1],
,{32}1,1,1,1,{8}1h[8:1],2h[8:1],3h[8:1],{16}4,4,{8}4h[8:1],7,
{16}4h[8:1],{8},{16}1,3,8,2,7,{8}1,{16}7,8,{8}7h[8:1],6h[8:1],
{16}5,4,{8}5,{16}3,4,2,5,{8}1h[8:1],7h[8:1],4h[8:1],5,
{16}3,6,{8}3,{16}4h[16:1],5h[16:1],3h[16:1],6h[16:1],{8}2,{16}7,3,{8}7h[8:1],8h[8:1],
1h[8:1],2h[8:1],3,4/5,6/3,{16}7,2,{8}7h[8:1],8h[8:1],
{16}1h[8:1],{8},{16}2,8,2,8,2,7,2,7,2,6,2,6,2,
5,3,5,3,4,4,4,4,4,4,4,4,4,4,4,4,
4b-8b[8:1],4,4,4,{4}4b,
E
