&title=少女A
&artist=椎名もた
&first=0.605
&des=kscore
&lv_5=13
&inote_5=(130)
{16}3,3,4,3,,6,6,5,6,,E3,,C,,E7,,
{16}5,5,4,5,,4,4,5,4,,E7,,C,,E3,,
{16}4h[8:1]/5,,5,,6,6,,5h[8:1],,7,,8,8/5h[8:1],,8,,
{16}1-6[8:1],,4-1[8:1],,1,,4,,7-3[8:1]b,,,,Cf,,,,
{8}2h[8:1]/4,4,2h[8:1]/4,3,{16}2/4,,5,2h[8:1],,4,2h[8:1],,
{8}4h[8:1]/3,3,4h[8:1]/5,5,{16}4/3,,2,4h[8:1],,3,4h[8:1],,
{8}5,6,45,3,{16}24,,3,5h[8:1],,4,6h[8:1],,
{8}7,78,18,12,{16}35,,4,5b,,,,,
{8}1>4[8:2]/5h[16:14],,,,,,4h[8:9],,
{8}1b-3-7-5[8:2],,,,,,5h[8:9],,
{8}7b<1[8:2],,,,,,2h[8:7],,
{8}3b-5[8:1],,,,7b-1[8:1],,4h[16:18],,
{8}8bpp8<6[8:3],,,,,,5h[8:9],,
{8}8b<2[16:5],,,,,,3h[8:9],,
{8}2b>1[8:2],,,,,,7h[8:7],,
{8}6bv4[8:1],,,,2b-8-4[16:3],,,,
{16}6,6,5,6h[8:6],,,{8}5,,7,,4,
{16}2bx,2bx,4bx,2bxh[8:6],,,{8}1,,5,,8,
{16}7,7,5,7h[8:6],,,{8}8,,4,,2,
{16}1-5[8:1],1,8,1,,,,,7-3[8:1],7,8,7,,,,,
{16}1-6-1pp3[8:3],1,4h[8:7],1,,,,,,,,,Cf,,,,
{16}5-8pp3[8:3],5,4h[8:7],5,,,,,,,,,Cf,,,,
{16}5-2qq8[8:3],5,6h[8:7],5,,,,,,,,,Cf,,,,
{16}1,1,8,1,8,8,1,8,2b-7[16:2]/7b-2[16:2],,,,,,,,
{8}5>7[8:6],4>7[8:5],3>7[8:4],2<7[8:3],1h[8:3],,,,
{8}4<2[8:6]b,5<2[8:5]b,6<2[8:4]b,7>2[8:3]b,8h[8:3],,,,
{8}5>1[8:2],,1<5[8:2],,5>1[8:2],,1<5[8:3]*s5[8:3],,
{8},,,,1h[8:6]b,,,,5h[8:2]b,,,,2h[8:6]b,,,,6h[8:6]b,,,,8z4[8:1],,,,
{4}3h[8:2],4h[8:2],5h[8:2],6h[8:2],5b,5b,5bw1[8:1],Cf,
{16}1b-4[16:3]/8,,2,,1-6[16:3],,8,,1-4[16:3],,2,,1-6[16:3],8,8,,
{16}1-4[16:3],,2,,1-6[16:3],,8,,1-4[16:3],,2,,1,8,8,,
{16}8b-5[16:3],,7,,8-3[16:3],,1,,8-5[16:3],,7,,8-3[16:3],1,1,,
{16}8-5[16:3],,7,,8-3[16:3],,1,,8,,7,,8,1,7h[16:14],,
{16}5,5,,4,4,,3,3,,2,2-5[16:2],,1,1,,,
{16}6,6h[16:9],,4,4,,3,3,,2,2-4[8:1],,1,1,,,
{16}5,5h[16:9],,4,4,,3,3,,2,2,,1,8,2,7,
{8}3h[8:1],E4/D4,6h[8:1],E6/D6,2h[8:1],E5/D5,7h[8:1],Cf,
{16}8b-5[16:3]/1,,7,,8-3[16:3],,1,,8-5[16:3],,7,,8-3[16:3],1,1,,
{16}8-5[16:3],,7,,8-3[16:3],,1,,8-5[16:3],,7,,8,1,1,,
{16}1b-4[16:3],,2,,1-6[16:3],,8,,1-4[16:3],,2,,1-6[16:3],8,8,,
{16}1-4[16:3],,2,,1-6[16:3],,8,,1,,2,,1,8,2h[16:14],,
{16}4,4,,5,5,,6,6,,7,7-4[16:2],,8,8,,,
{16}3,3h[16:9],,5,5,,6,6,,7,7-5[8:1],,8,8,,,
{16}4,4h[16:9],,5,5,,6,6,,7,7,,8,1,7,2,
{8}6h[8:1],B5/E5,3h[8:1],B2/E3,7h[8:1],E1/B8,2h[8:1],4b<1>5<8[8:7]b,,,,,,,,,
{4}Ch[8:16]/A8f,,,,,,,,E8/B8/B1/E2,,E6/B5/B4/E4,,
{8}1s5[8:5],,7z3[8:3]b,,,,,,
{16}3,4,3,5,4,5,2,4,2,6,4,6,1,1,1/5b,,
{16}6,5,6,4,5,4,7,5,7,3,5,3,8,8,8/4b,,
{16}3,4,2,6,5,7,3,4,1,6,5,8,3,5,1b,,
{16}8,8,7,7,6,6,5,5,{32}E4,E3,E2,E1,E8,E7,E6,E5,Cf/E4,,,,,,,,
{16}1b-3-6[16:3]/8,,2,,1-7-4[16:3],,8,,1-3-6[16:3],,2,,1-7-4[16:3],8,8,,
{16}1-3-6[16:3],,2,,1-7-4[16:3],,8,,1-3-6[16:3],,2,,1,8,8,,
{16}8b-6-3[16:3]/1,,7,,8-2-5[16:3],,1,,8-6-3[16:3],,7,,8-2-5[16:3],1,1,,
{16}8-6-3[16:3],,7,,8-2-5[16:3],,1,,8,,7,,8,1,7h[8:1],,
{16}4,4,5,4,4,6,4,4,7,4,4,8,4,4,D1f/E1/A1/A8/B8/B1,,
{16}5,5,4,5,5,3,5,5,2,5,5,1,5,5,D1f/E1/A1/A8/B8/B1,,
{16}4,4,5,4,4,6,4,4,7,4,4,8,4,4,D1f/E1/A1/A8/B8/B1,,
{8}4b>1[8:1]/5b<8[8:1],,4-8[8:1]/5-1[8:1],,4/5,,2b/7b,,
{8},,C/B6/B3,,,,A8/B7/B3,,,,A2/B3/B7,,,,B1/B6/E4,,,,B5/E7/B1,,,,B1/E3/B5,,,,Ch[8:4],,,,{64}D7,A6,D6,A5,D5,A4,D4,A3,,,,,,,,,
{8}1>3[8:1],8,7<5[8:1],8,1,{16}8>4[8:2],8,,,7h[8:2],,
{4},{8}5,76,18,32,45,36,
{8}7-3[8:1]/2,,1-5[8:1]/7,,3v8[8:1]/1,,53,6,
{8}5w1[8:1],,{32}5xb/B5,C,B8/B1/B2,,,,,,{8}4w8[8:1],,{32}B4/4xb,C,B7/B8/B1,,,,,,
{8}5<7[8:1],4,3>1[8:1],4,5,{16}4<8[8:2],4,,,3h[8:2],,
{4},{8}1,4h[16:1]/2h[16:1],5h[16:1]/6h[16:1],1h[16:1]/3h[16:1],6h[16:1]/8h[16:1],1h[16:1]/2h[16:1],
{8}7h[8:16]/8-4[8:1],,A8f,,2-6[8:2],,A2f,,1>3[8:1],,1-4[8:1],,1-5[8:1],,,,
{8}81,{16}2x/7x-3[13#80:1]b,3x/6x,4x/5x,,
{4}1b-4-1-6-1[8:17],,
