&title=夏恋
&artist=Otokaze
&first=0
&des=冰霜枫叶飘
&clock_count=4
&lv_4=pre-wlf10
&lv_5=pre-wlf10
&inote_4=(184)
{1},
{8}
7,,3,2,1h[4:1]/8,,7,,53,,7,6,5h[4:1]/2,,3,,45,,36,,27,,18,,27,,36,,3h[4:1]/6h[4:1],,,,
46,,1,6,5/4h[4:1],,6,,35,,4,6,1,,5,,2,,7,,18,,27,,56,,45,,5h[4:1]/6h[4:1],,,,
8,,4,8,4h[4:1]/8h[4:1],,,,6,,2,6,2h[4:1]/6h[4:1],,,,5,,1,5,15,,26,,17,,28,,17,,28,,
5,,3,,8,,4,,1,,2,,3,,4,,5,,6,,
{16}45,45,{8},45,,45,,45,,45,,45,,1h[4:1]/5,,5,,
{8}6,2,5,5,1,7,4,4,8,3,7,7,4,5,1,1,
7,3,7,3,8,4,8,4,7,3,7,3,6,2,6,2,
6,2,5,5,1,7,4,4,8,3,7,7,4,5,1,1,
7,3,7,3,8,4,8,4,7,3,7,3,6,2,6,2,
17,3,5,5,15,7,4,48,
3,6,6,46,5,1,1,17,
3,7,3,38,4,8,4,46,
3,4,3,35,1,5,1,16,
2,5,5,15,6,4,4,48,
3,6,6,46,5,1,1,17,
2,7,2,28,4,8,4,46,
3,6,3,35,1,5,1,18,
27,48,48,27,15,27,27,45,27,15,15,27,48,27,27,18,
27,48,48,27,15,27,27,45,27,15,15,27,48,27,27,18,
27,18,18,27,15,27,27,45,27,15,15,27,48,27,27,18,
27,48,48,27,15,27,27,45,27,15,15,27,48,27,27,18,
36,48,48,36,15,36,36,45,36,15,15,36,48,36,36,18,
36,48,48,36,15,36,36,45,36,15,15,36,48,36,36,18,
36,48,48,36,15,36,36,45,36,15,15,36,48,36,36,,
8,,8,,8,,8,,1,7,1,7,17,17,17,17,4h[4:2]/5h[4:2],,,,,,,,2h[4:2]/8h[4:2],,,,,,,,1h[4:5]/4h[4:2],,,,,,,,5h[4:1],,,,17,,27,,1h[4:2]/8h[4:2],,,,,,18,,4h[4:1]/6h[4:1],,,,
{4}3h[4:1]/5h[4:1],,1h[4:3]/8h[4:1],,8h[4:3],,1h[4:1],,{8}18,18,18,18,{4}2h[4:9]/7h[4:9],,,,,,,,,,45,34,4h[4:2]/5h[4:2],,,56,3h[4:2]/6h[4:2],,,18,4h[4:2],,3h[4:2],,2h[4:8],,,,,,
{8}8,8,8,8,7,1,7,1,
,5,3,5,3,5,3,5,
,4,8,4,8,4,8,4,
,7,1,7,1,7,1,7,
1,2,5,2,5,2,5,2,
,8,4,8,4,8,4,8,
,1,7,1,7,1,7,1,
,5,3,5,3,5,3,5,
35,35,35,35,{4}35,24,13,28,17,68,57,46,35,46,57,68,17,28,13,24,35,46,57,{8}8h[8:1],7h[8:1],6h[4:7],,,,,,1h[8:1],2h[8:1],3h[4:3],,,,,,,,6,3,6,3,2b/7b,2b/7b,4b/5b,4b/5b,,,,,
&inote_5=(184)
{1},
{8}
8,,7,6,5,,,,4,,3,2,1,,,,2,,1,,7,,8,,1,,2,3,,,,,
8,,7,6,5,,,,4,,3,2,1,,8,,1,,2,,3,,4,,5,,6,,7h[4:1],,,,
8,,7,6,5,,,,4,,3,2,1,,,,2,,1,,7,,8,,1,,2,3,,,,,
8,,8,,8,,,,2,,1,,8,,7,,6,,5,,
{16}4,4,,,5,5,,,3,3,,,6,6,,,{8}1xbh[8:2],,,,8,,8,,
{8}56,45,56,45,45,34,45,34,56,45,56,45,45,34,45,34,56,45,56,45,45,34,45,34,56,45,56,45,45,34,45,34,
12,18,12,18,18,78,18,78,12,18,12,18,18,78,18,78,12,18,12,18,18,78,18,78,12,18,12,18,18,78,18,78,
56,45,56,45,45,34,45,34,56,45,56,45,45,34,45,34,56,45,56,45,45,34,45,34,56,45,56,45,45,34,45,34,
12,18,12,18,18,78,18,78,12,18,12,18,18,78,18,78,12,18,12,18,18,78,18,78,12,18,12,18,18,78,18,78,
6b/5b,54,65,54,5b/4b,43,54,43,6b/5b,54,65,54,5b/4b,43,54,43,6b/5b,54,65,54,5b/4b,43,54,43,6b/5b,54,65,54,5b/4b,43,54,43,
2b/1b,18,21,18,1b/8b,87,18,87,2b/1b,18,21,18,1b/8b,87,18,87,2b/1b,18,21,18,1b/8b,87,18,87,2b/1b,18,21,18,1b/8b,87,18,87,
6b/5b,54,65,54,5b/4b,43,54,43,6b/5b,54,65,54,5b/4b,43,54,43,6b/5b,54,65,54,5b/4b,43,54,43,6b/5b,54,65,54,5b/4b,43,54,43,
2b/1b,18,21,18,1b/8b,87,18,87,2b/1b,18,21,18,1b/8b,87,18,87,2b/1b,18,21,18,1b/8b,87,18,87,2b/1b,18,21,18,1b/8b,87,18,87,
8,,7,,6,,5,5,4,,3,,2,,1,,8h[4:1],,,,7h[4:1],,,,6h[4:1],,,,5h[4:1],,,,6,,7,,8,,1,,2,,3,,4,,5,,4h[4:1],,,,3h[4:1],,,,2h[4:1],,,,
6,,6,,8,,7,,6,,5,5,4,,3,,2,,1,,8h[4:1],,,,3,,2,,1h[2:1],,,,,,,,5,,6,,7,,8,,1,,2,,3,,4,,5h[4:1],,,,4h[4:1],,,,3h[4:3],,,,,,,,
{4}6,3,5,4,1,8,7,6,6,3,5,4,1,8,7,6,
6,3,5,4,1,8,7,6,6,3,5,4,6,7,8,1,
6,3,5,4,1,8,7,6,6,3,5,4,6,7,8,1,
6,6h[4:3],,{8}1,2,3,,,,,,8,7,6,,,,{8},,8,1,2,3,4,5,6,7,8,1,
