&title=ゆるパカHAPPY DAYS!
&artist=ウマ娘たち
&first=0
&des=AsukaHana
&wholebpm=240
&first_5=0
&lv_5=13
&inote_5=(240)
{2},,,
{8},,,1>8[8:5]/8<1[8:5],,,,,,,,,
18,,34,,6,5h[8:3],,8,8^5[8:1],,3,,1^4[8:1],,6,,8,,57,,2,4h[8:2],,8h[8:3],,5,5-7[8:1],,8-4[8:1],,5,,
7,,56,,3,4h[8:3],,1,1^4[8:1],,6,,8^5[8:1],,3,,1,,42,,7,5h[8:2],,1h[8:3],,4,4-2[8:1],,1-5[8:1],,4,,
2qq7[4:2],,3,,4,,5,,6qq3[4:2],,7,,8,,1,,24,,56,,18,18,,1pp4[4:2]/8qq5[4:2],,,,,,,,
2,4,,7/8>3[8:1],,6,6h[4:1],,5w1[8:1],,,,,1>8[8:4],,,,8pp3[8:4]*qq5[8:4],,,,,,,,
{12}18,,7,5,,6,4,,5,3,,4,{8}2-5[8:1],,7-1[8:1],,2-5[8:1],,7,,
{12}12,,3,5,,4,6,,5,7,,4,{8}8-5[8:1],,3-1[8:1],,8-5[8:1],,3,,
{12}18,,2,4,,3,5,,4,6,,5,{8}7-4[8:1],,2-8[8:1],,7-4[8:1],,2,,
{12}78,,6,4,,5,3,,4,2,,5,{8}1b-4[8:1],,5b-8[8:1],,2b-7[8:1],,6b,,
{12}25,,3,4,,4,2,,2,5,,5,{8}1-3[8:1],,8qq6[8:1],,1-3[8:1],,8,,
{12}74,,6,5,,5,7,,7,4,,4,{8}8-6[8:1],,1pp3[8:1],,8-6[8:1],,1,,
{12}25,,3,4,,4,2,,2,5,,5,{8}1-3[8:1],,8qq6[8:1],,1-3[8:1],,8,,
{8}4-2[8:1],,5-7[8:1],,1-3[8:1],,8-4[8:1],,4>6[8:3],,,,,,
{12},,2/5h[4:1],,,3,4,,4,3,,,12,,7/4h[4:1],,,6,5,,5,6,,,
{8}78,,4-2[8:1]/5,,7,,1-3[8:1]/8,,6,,5-7[8:1]/4,,2,,8-6[8:1]/1,,3,,
{8}45,,57,,81,,24,,45,,57,,81,,2qq8[8:1]/4,,6h[4:1],,,1V35[8:3]/5V71[8:3],,,,,,,
{8}48,,37,,26,,1h[4:1]/5p8[8:3],,,8<4[8:3],,,3>8[4:1],,3,,6,,6b/5b,,
37,,8h[4:1]/4q1[8:3],,,1>5[8:3],,,6<1[4:1],,6,,3,,3b/4b,,4h[4:1],,
{16}1,2,3,4,5,6,7,8,{8}15,,34,,7h[8:3]/8,,,5h[8:3],,,1,,{6}4b/8b,4b/8b,4b/8b,3b/7b,3b/7b,3b/7b,
{8}2b-5[8:1]/6b,,6b-1[8:1],,2b,,
{12},,18,,,2,4,,4,2,,2,7,,7,5,,5,7,,7-3[8:1],,,,1-5[8:1],,,
{12}18,,,6,4,5,{8}3-8[8:1],,4-7[8:1],,2-6[8:1],,4V68[4:1]*V28[4:1],4,,,,,
1-5[8:1]/8,,6,,1-5[8:1]/8,,6,,4/3-8[8:1],,6,,4/3-8[8:1],,6,,1V35[4:1],,5V71[4:1],,1V35[4:1],,5V71[4:1],,1V35[4:1],,5V71[4:1],5v2[8:1],,,,,
{12}3,4,3,6,5,6,4,5,4,5,,,{8}3b/4b,3bV57[4:1]/4b<8[4:1],,,,,,
24,24,,47,,14,,47,,
{16}14,2,3,4,5,6,7,8,1,2,3,4,5-1[8:1],,,,
{8}6-8[8:1],,5-1[8:1],,6-8[8:1],,5,,3-1[8:1],,4-8[8:1],,3-1[8:1],,4,,
{8}3b<1[4:1]/5b,,7,7h[8:3],,,{12}1,,,34,,,5-1[8:1]/6,,,6-8[8:1],,,5,,,
{8}6b>8[4:1]/4b,,2,2h[8:3],,,{12}8,,,56,,,4-8[8:1]/3,,,3-1[8:1],,,4,,,
{8}3b<1[4:1]/5b,,7,7h[8:3],,,{12}1,,,2b/4b,,,8b/1b,,,5b/7b,,,1b>8[1:1]/8bq1[1:1],,,1b/8b,,,,,,,,,,,,{1},
{8}57,,16,,3,4h[8:3],,2,2^5[8:1],,6^1[8:1],,2^5[8:1],,6,,42,,83,,6,5h[8:2],,8h[8:3],,5,5-1[8:1],,8^3[8:1]*^5[8:1],,,,
42,,83,,6,5h[8:3],,7,7^4[8:1],,3^8[8:1],,7^4[8:1],,3,,57,,16,,3,4h[8:2],,1h[8:3],,4,4-8[8:1],,1^6[8:1]*^4[8:1],,,,
7qq4[4:2],,3,,3,,1,,2pp5[4:2],,6,,6,,8,,7b/5b,,4b/3b,,8b/1b,8b/1b,,8bqq5[4:2]/1bpp4[4:2],,,,,,,,
2,4-8[8:1],,1b,,7,5-1[8:1],,8b,,7,7-3[8:1],,4-1[8:1]*-8[8:1],,,,2,4,6,8,,57,,2pp5[1:1]/4pp7[1:1],,,,,,,,,,,,,,,,,,,,,,,,E
