&title=Share the light
&artist=Run Girls, Run!
&first=0
&des=luvlily/yuzuu
&des_5=luvlily
&des_6=yuzuu
&lv_5=13
&lv_6=13
&inote_5=(180){1},,
{16}6h[8:1],,,,6h[8:1],,,,6h[8:1],,,,6h[8:1],,,,
{16}6h[8:1]/4^1[4:1],,,,6h[8:1],,,,6h[8:1],,,,6h[8:1],,,,
{16}3h[8:1],,,,3h[8:1],,,,3h[8:1],,,,3h[8:1],,,,
{16}3h[8:1]/5^8[4:1],,,,3h[8:1],,,,1b,,,,1b/8b,,,,
{16}6h[8:1],,,,5h[8:1],,,,4h[8:1],,,,3h[8:1],,,,
{16}2h[8:1],,,,1h[8:1],,,,8h[8:1],,,,7h[8:1],,,,
{16}6,,6,,4,,4,,5,3,6,2,7,1,8-4[4:1],,
{16},,,,,,,,3,,6,5,47,,,,
{24}18,27,36,{16}4/5pp8[8:4],,,,,,1,,2,,3,,4>6[8:3],,
{16},,,,5,,5h[4:1],,,,,,{24}5^7[8:1]/4b,3,2,1,,,
{16}4^2[8:1],,3,,5^7[8:1],,6,,4,,3,,2,,8h[8:2]/1h[8:2],,
{16},,,,72,,5h[8:2]/4h[8:2],,,,,,63,,,,
{24}81,72,63,{16}5/4qq1[8:4],,,,,,8,,7,,6,,5<3[8:3],,
{16},,,,4,,4h[4:1],,,,,,{24}4^2[8:1]/5b,6,7,8,,,
{16}5^7[8:1],,6,,4^2[8:1],,3,,5,,6,,7,,2-6[8:1]/8,,
{16},,24,,,,5/7-3[8:1],,,,17,,,,,,
{16}4/5<5[2:7],,,,,,,,,,,,,,,,
{16}2,,,,,,,,,,,,,,,,
{16}8,,,,,,,,,,,,,,,,
{16}6,,,,,,,,,,,,,,,,
{16}1-4[2:1],,,,,,,,,,,,,,,,
{16}8-5[2:1],,,,,,,,,,,,,,,,
{16}1^4[2:1],,,,,,,,,,,,,,,,
{16}8^5[2:1],,,,,,,,,,,,,,,,
{16}5h[8:3],,4,,3,,2,,,,,,,,,,
{16}4h[8:3],,5,,6,,7,,,,,,,,,,
{16}7h[8:3],,5,,4,,3,,,,,,,,,,
{16}2h[8:3],,4,,5,,6,,,,,,,,,,
{16}1p8[8:4],,2,,3,,4,,,,,,,,,,
{16}8q1[8:4],,7,,6,,5,,,,,,,,,,
{16}4q5[8:4],,3,,2,,1,,,,,,,,,,
{16}5^2[8:1],,6,,7,,8,,1,2,3,4,5,6,7,8,
{16}1,,2,,3,4,3,,6,5,6,,7,,8,,
{16}1,,2,,2,1,2,,7,8,7,,6,,5,,
{16}4,,3,,3,4,3,,6,5,6,,7,,8,,
{16}1,2,3,4,5,6,7,8,1^6[8:1],,2,,3,,4,,
{16}5,,6,,7,8,7,,2,1,2,,3,,4,,
{16}5,,6,,6,5,6,,3,4,3,,2,,1,,
{16}8,,7,,7,8,7,,2,1,2,,3,,4,,
{16}5,,{24}7b,6,5,{16}4,,{24}1b,2,3,{16}4,,65,,8,1,7,2,
{16}8,,1,,2,4,3,,6,5,7,5,6,,4,,
{16}3,,2,,8,1,7,,2,1,3,1,2,,8,,
{16}7,,6,,4,5,3,,7,8,6,8,7,,1,,
{16}8,7,6,5,4,3,2,1,8^3[8:1],,7,,6,,5,,
{16}4-8[8:1],,4,,6-1[8:1],,6,,3-8[8:1],,3,,7,,7,,
{16}5-1[8:1],,5,,3-8[8:1],,3,,6-1[8:1],,6,,2,,2,,
{16}3,4,3,4,2,5,2,5,1,6,8,7,{32}1,2,3,4,5,6,7,8,
{24}1,2,3,{16}4,5,{12}6,7,8,{24}1-5[8:1],2,3,{8}4,1b/8b,,
{24}4,3,2,8,7,6,{16}5/4,3,2q5[8:3],1,{8}8,6^1[8:1],{16},,6b,,
{24},,,4-7[8:1]/8-3[8:1],37,26,{16},,48,,,,,,{24}5/4b-8[8:1],3,2,1,,,
{16}4qq6[8:3],,,,4/8,,,,7,,7qq1[8:3],,,,7h[8:3],,
{16},,,,,,2h[8:3],,3b,,,,3b,4,5,6,
{24}17,2,3,5,6,7,{16}8/1,2,3p8[8:3],4,{8}5,7^4[8:1],{16},,7b,,
{24},,,1-6[8:1]/5-2[8:1],26,37,{16},,15,,,,,,{24}8^5[8:1]/1b,2,3,4,,,
{16}1^4[8:1],,2,,8^5[8:1],,7,,1,,2,,3,,7/5h[4:1],,
{16},,,,45,,4h[8:2]/2,,,,,,4qq1[8:3]/5pp8[8:3],,,,
{16}4b/5b,,,,,,,,,,{24}1/8-4[8:1],27,36,45,,,18,,,
{24},,,5-2[8:1]/1-6[8:1],62,73,{16},,51,,,,,,{24}4/5b-1[8:1],6,7,8,,,
{16}5pp3[8:3],,,,5/1,,,,2,,2pp8[8:3],,,,2h[8:3],,
{16},,,,,,7h[8:3],,6b,,,,6b,5,4,3,
{24}82,7,6,4,3,2,{16}1/8,7,6q1[8:3],5,{8}4,2^5[8:1],{16},,2b,,
{24},,,8-3[8:1]/4-7[8:1],73,62,{16},,84,,,,,,{24}1^4[8:1]/8b,7,6,5,,,
{16}8^5[8:1],,7,,1^4[8:1],,2,,8,,7,,6,,2/4qq5[16:5],,
{16},,64,,,,8qq1[16:5],,,,86,,,,,,
{16}4h[1:2],,,,,,,,,,,,,,,,
{16},,,,,,,,,,,,,,,,
{16},,,,,,,,,,,,,,,,
{16},,,,,,,,,,,,,,,,
{16},,,,,,,,,,,,,,,,
&inote_6=(90){1},
{16}5h[8:1],,2,2pp5[8:3],,4,,6,,7,,8,,1,,,
{16}8h[8:1]],,3,3V51[4:1],,1,,8,,7,,6h[16:5],,,,,
{16}4h[8:1],,7,7qq4[8:3],,5,,3,,2,,1,,8,,,
{16}2,25,3,36,4w8[8:1],47,5,58,,,,,{32}2<4[16:3],6,3,5,4b,,,,
{16}2,,,,8<2[16:3],4,6,2pp1[16:3]*>8[16:3],,,,,,,,,
{16}2z6[16:3],7,3,6>2[8:1]*<2[8:1],,,,,,,,{32}13,8,{16}7>5[16:3],,,{32}7,1,
{16}7,,,,1>7[16:3],5,3,7qq8[16:3]*<1[16:3],,,,,,,,,
{16}8z4[16:3],3,7,4,,,,8w4[16:1],,3V58[32:3]/5V38[32:3],,,,,,,
{1}2qq7[4:3],
{16}6>3[4:1],,8,8,,1,,,2<7[4:1],,4,4,,5,,,
{16}6<1[4:1],,4,4,,3,,,2>5[4:1],,8,8,,7,,,
{16}6qq3[2:1],,8,8,,1h[16:3],,,,,,,,,2pp6[16:5],,
{16}3,,6,6<4[16:5]*pp4[16:5],,7,,,,,,,,,7qq3[16:5],,
{16}6,,3,3>5[16:5]*qq5[16:5],,2,,,,,,,,,2qq3[4:1],,
{16}3,,5,5,,,4,,5pp3[8:3],,6,,4,,3pp7[8:3]*pp7[8:3],,
{4}2h[2:1],,,4b/6h[4:1],
{8}5-3[8:1],5,7-5[8:1],7,1<7[8:1],1,3-1[8:1],3,
{8}5v4[8:1],5,6V85[4:1],6,3,3,2,2,
{8}3<5[8:1],3,1pp3[8:1],1,7>1[8:1],7,5pp4[4:1],5,
{8}3,3,2pp1[4:1],2,7,7,6,6,
{16}34,,34,,2,1,12,,47,{32}6,5,{16}6,27,1,8,18,,
{16}65,,65,,7,8,87,,52,{32}3,4,{16}3,72,8,1,81,,
{16}7-4[8:1],8,8,8,1-6[8:1],2,2,2,3-8[8:1],4,4,4,5,6,6,6,
{32}8,7,8,7,1,6,1,6,2,5,2,5,3,4,3,4,1,,6,,{24}1-5[16:1],5,5,{32}2,4,2,4,,,,,
{32}8,7,6,5,4,3,{16}2>6[8:1],,1,5V38[128:25],1V74[8:1],,,,1,,,,,
{16}2-4[16:1],4-1[16:1],1-5[16:1],5<3[32:5],2,,,7p4[16:3]*p5[16:3],,,,7b,,,,,
{32}1,2,3,4,5,6,{16}7<3[8:1],,8,4V61[128:25],8V25[8:1],,,,8,,,,,
{16}7-5[16:1],5-8[16:1],8-4[16:1],4>6[32:5],7,,,2q5[16:3]*q4[16:3],,,,2b,,,,,
{32}1,8,7,6,5,4,{16}3p2[16:3],,8,2pp1[4:1],6pp5[16:3],,,,6,,,,,
{16}8-6[16:1],6-1[16:1],1-5[16:1],5<3[32:5],8,,,4qq6[16:3]*qq5[16:3],,,,4b,,,,,
{32}8,1,2,3,4,5,{16}6q7[16:3],,1,7qq8[4:1],3qq4[16:3],,,,3,,,,,
{16}1-3[16:1],3-8[16:1],8-5[16:1],4-7[16:1],1,4-8[16:1],4,4-1[16:1],,4>5[16:3],,4,,4w8[16:15],,,
{1}4bw8[360#4:15]*w8[360#4:15],{2},
E
