&title=S・M・L☆
&artist=アフィリア・サーガ
&first=0
&des=reflectWの脳内netaが、譜面創作を全力で邪魔している
&lv_5=12
&inote_5=(200)
{1},
{16}4-1[8:1]/5-8[8:1],,,,45,,,,27,,,,36,,4v2[8:1]/5q1[8:1],,
{8},45,,3,7,,4/5-8[8:1],,
{8}4-1[8:1]/5,,4,,5h[4:1],,3,,
{8}4v1[8:1],5-7[8:1],4,5,,1b/8b,1b/8b,,
{16}4p8[8:1]/5v8[8:1],,,,45,,,,27,,,,3,,5v8[8:1]/4-1[8:1],,
{8},45,,7,3,,36,,
{8}4-1[8:1],5-8[8:1],4,5,,2,3,4^1[8:1],
{8},5,6,7,8w4[8:1],,8b,,
{8}7h[4:1],,4,,2h[4:1],,5,,
{8}7h[4:1],,1,,2h[4:1],,8,,
{8}7qq5[12:2],,3,,2pp4[12:2],,6,,
{8}7V53[4:1],,3,,2V46[4:1],,6V82[4:1],,
{8}2,,,,8<4[4:1],,4>8[4:1],,
{8}8V64[4:1],,4V28[4:1],,8p4[4:1],,4<8[4:1],,
{16}1,,,,2,,,,3,,,,4,,,,
{8}6-1[8:1],3-8[8:1],6,3,,5b,5b,,
{8}2h[4:1]/5,,5,,7h[4:1]/4,,4,,
{8}2h[4:1]/8,,8,,7h[4:1]/1,,1,,
{8}2pp4[12:2]/6,,6,,7qq5[12:2]/3,,3,,
{8}2V46[4:1],,6,,7V53[4:1],,3V17[4:1],,
{8}7,,,,1q5[4:1],,5q1[4:1],,
{8}1V35[4:1],,5V71[4:1],,1>5[4:1],,5p1[4:1],,
{8}8h[2:1],,,,4h[2:1],,,,
{8}2b-6[8:1],,2b,,2bw6[8:1],,2b,,
{4}3h[4:1],7h[4:1],3h[4:1],7h[4:1],
{4}3-6[8:1],3b,7-2[8:1],7b,
{4}4h[4:1],8h[4:1],4h[4:1],8h[4:1],
{4}4v3[8:1],4b,8-5[8:1],8b,
{16}1-3[8:1]/4-8[8:1],,14,,,,,,7-5[8:1]/4-8[8:1],,74,,,,,,
{16}1v3[8:1]/4-8[8:1],,14,,,,,,7v5[8:1]/4-8[8:1],,74,,,,,,
{8}1h[4:1],,7h[4:1],,8h[4:1],,1h[4:1],,
{16}2,3,4,5,6^3[8:1],7,8,1,2v7[8:1]*v5[8:1],,,,2b,,,,
{8}3qq5[16:5],,,,6pp4[16:5],,,,
{8}1V35[4:1],,5V71[4:1],,1V35[4:1],,5V71[4:1],,
{8}1,,,,7-4[8:1],,78,,
{8}3^8[8:1],,34,,{16}5w1[8:1],,,,5,,,,
{8}7bV58[16:4],,2,3,4V25[16:4],,1,8,
{8}7V16[16:4],,1,2,3V52[4:1],,7,,
{8}8-5[8:1],8,1-4[8:1],1,7h[4:1],,,,
{8}1b-4[8:1]/7b-5[8:1],,1b/7b,,8b-5[8:1]/2b-4[8:1],,8b/2b,,
{8}6pp6[16:5],,,,3pp3[16:5],,,,
{8}8V64[4:1],,4V28[4:1],,8V64[4:1],,4V28[4:1],,
{8}8,,,,
{8}6-1[8:1],,65,,2^5[8:1],,2pp2[16:5]/1qq1[16:5],,{16},,,,,,,,
{8}2bV41[16:4],,7,6,5V74[16:4],,8,1,
{8}2V83[16:4],,8,7,6V47[4:1],,2,,
{8}1-4[8:1],1,8-5[8:1],8,2h[4:1],,,,
{8}6b-8[8:1]/2b-4[8:1],,6b/2b,,1b^6[8:1]/5b^2[8:1],,1b/5b,,
{8}1-5[8:1],,,,8-6[8:1],,,,
2-4[8:1],,,,1-5[8:1],,,,
4v1[4:3]/6v1[4:3],,,,,,,,
,,,,7-4[8:1]/1-4[8:1],,71,,
{8}3-5[8:1],5,3,,7-5[8:1],5,7,,
2-4[8:1],4,2,,6-4[8:1],4,6,,
3^8[4:1],,8^5[4:1],,5^2[4:1],,2<4[4:2]*p4[4:2],2,
{16},,,,,,,,,,,,,,,,
{8}2-7[8:1]/7-2[8:1],,,,3-6[8:1]/6-3[8:1],,,,
{8}2-5[8:1]/5-2[8:1],,,,3-8[8:1]/8-3[8:1],,,,
{8}1-6[8:1]/6-1[8:1],,,,4-7[8:1]/7-4[8:1],,,,
4V62[2:1]/5V37[2:1],,,,,,,,
1h[2:1]/8h[2:1],,,,,,26,,
35,,,47,,,82,,
4-1[4:1],,,,5-8[4:1],,,,
4-1[4:1],,,,5,,,,
5z1[8:1]/4-1[8:1],,45,,5-8[8:1]/4-1[8:1],,45,,
5v8[8:1],4v1[8:1],5,4,,3b/6b,4bp8[8:1]/5b-8[8:1],,
45,,4-1[8:1]/5v2[8:1],,54,,38,,
5q1[8:1],4v1[8:1],5,4,,3b/6b,5b^8[8:1]/4bqq2[8:1],,
45,,4-8[8:1]/5,,4/5-7[8:1],,5,,
4-1[8:1],5-8[8:1],4,5,,3b/6b,4-1[8:1]/5,,
5-8[8:1]/4,,45,,4p8[8:1]/5v8[8:1],,45,,
1^4[8:1],5^8[8:1],1,5,,15,1b<1[1:2]/5b>5[1:2],,
