&title=Hello! Wink!
&artist=Poppin'Party
&first=0.01
&des_5=Raze&水粒子
&clock_count=4
&lv_5=13
&inote_1=
&inote_5=(152)
{1},
{16}4/5,,,4/6,,,4/7,,5/4,,,5/3,,,5/2,,
{16}7/3,,,8/4,,,1/5,,8v5[8:1]/4v1[8:1],,,,8b/4b,,,,
{1}3qq8[4:5]/7qq4[4:5],
{8},,,,,1/5,2/6,,
{8}7/3,{16}6,4,,,5h[8:3],,,,2b,,2b,,,,
{8}3h[2:1],4,5,6h[8:1],,7b,7b,,
{8}4qq1[4:5]/8qq5[4:5],,,,,,,,
{8},,,,,2/6,7/3,,
{16}6/2,,3,5,,,4h[8:3],,,,7b,,7b,,,,
{8}6h[2:1],5,4,3h[8:1],,2b,2b,,
{4}2h[8:1]/4h[8:1],2h[8:1]/4h[8:1],3h[8:1]/5h[8:1],3h[8:1]/5h[8:1],
{4}7h[8:1]/5h[8:1],7h[8:1]/5h[8:1],6h[8:1]/4h[8:1],6h[8:1]/4h[8:1],
{4}4v7[8:1]/2h[8:1],1h[8:1],8v3[8:1]/6h[8:1],5h[8:1],
{16}4b/6b,,,2b/8b,,,7bp3[8:1]/3b,,{4},1b,
{16}3/8,,2,1,2,,2,1,{8}2,3,5,6,
{16}7/4,,6,5,6,,6,5,{8}6,7,8,1,
{16}2/5,,3,4,3,,4,5,{8}4,3,2,1,
{16}5b/3b,,,7b/1b,,,2bq6[8:1]/6b,,{4},8b,
{16}3h[8:1]/1,,,7h[8:1]/1,,,{8}5v2[8:1],5v8[8:1],5b,5b,,
{16}2h[8:1]/4,,,6h[8:1]/4,,,{8}8v3[8:1],8v5[8:1],8b,8b,,
{16}6h[8:1]/8,,,2h[8:1]/8,,,{8}4-7[8:1],4-1[8:1],4b,4b,8h[4:1],
{4},{8}3/7,4-1[8:1],6-1[8:1],4,6,,
{16}7h[8:1]/5,,,3h[8:1]/5,,,{8}1-5[8:1],8-4[8:1],1b,8b,,
{16}6h[8:1]/8,,,2h[8:1]/8,,,{8}4-8[8:1],5-1[8:1],4b,5b,,
{16}7h[8:1]/5,,,3h[8:1]/5,,,{8}1-5[8:1],8-6[8:1],1b,8b,2h[4:1],
{4},{8}7/3,8-5[8:1],2-5[8:1],8,2,,
{8}3q5[8:3]/6h[4:1],,,7-4[8:1],,7,,,
{8}3qq5[8:3]/6h[4:1],,,7-4[8:1],,7,,,
{8}2q5[8:3]/6h[4:1],,,7-4[8:1],,7,,,
{8}2qq5[8:3]/6h[4:1],,,7h[4:1],,{16},,6,4,6,,
{8}3h[4:1]/5q8[8:5],,,2,1-4[8:1],,1,,
{4}7<4[4:1],4z8[8:3],2-6[8:1],2b,
{16}5h[8:1]/7h[8:1],,,2h[8:1]/4h[8:1],,,1/8,,5h[8:1]/7h[8:1],,,2h[8:1]/4h[8:1],,,1/8,,
{4}3h[4:1]/6h[4:1],,7b-4[8:1]/2b-5[8:1],7/2,
{4}7p3[8:1]/3p7[8:1],3/7>4[4:1],6,8z4[4:1],
{8}8/2-6[8:1],,2,8-6[8:1],4-2[8:1],8b,4b,,
{16}7,,6,5,,3,4,3,4,,1>6[16:11],6h[8:1],,,,,
{16}8,,,7^2[8:1],,,{8}7,,1/5,8/4,,
{4}2q6[8:1]/6q2[8:1],6/2<5[4:1],3,1s5[4:1],
{8}1/7-3[8:1],,7,1-3[8:1],5-7[8:1],1,5,,
{16}1/2,,3,4,,6,5,,8h[8:1]/7h[8:1],,,1/6,,,3/4,,
{16}1h[8:1]/2h[8:1],,,8/3,,,4/7,,6,5,7,4,1<6[8:1],2,8,3,
{8}1b>4[8:1],,1b-5[8:1],,1b,8>3[8:1],8,8b<5[8:1],
{8},8b-4[8:1],,8b,,8,1/7,2/6,
{16}7-4[6:1]/3,,,2,,,1,,2-5[6:1]/6,,,7,,,8,,
{16}1-6[6:1],,,2,,,3,,{4}4w8[8:1],4,
{8}1b-5[8:1]/7b-5[8:1],,1b-3[8:1]/7b-3[8:1],,1b/7b,,2/4,1b^3[8:1]/5b^7[8:1],
{8},1b-5[6:1]/5bs1[4:1],,1b/5b,,,7-4[3.16##0.2]/3-8[3.16##0.2],,
{1}3h[2:3]/7h[2:3],
{4},,,3b/7b,
{4}1-5[8:1],4-8[8:1],2-6[8:1],7-3[8:1],
{8}5-1[8:1],,8,,{8}6h[4:1],3,3,,
{16}7/3,,6,5,,4,5h[8:3],,,,2b,,2b,,,,{8}4h[4:3],
{8}8,6,8,7,6b,6b,,
{4}8-4[8:1],5-1[8:1],7-3[8:1],2-6[8:1],
{8}4-8[8:1],,1,,{8}3h[4:1],6,6,,
{16}2/6,,3,4,,5,4h[8:3],,,,7b,,7b,,,,{8}5h[4:3],
{8}1,3,1,2,3b,3b,,
{16}5h[8:1]/7h[8:1],,,2h[8:1]/4h[8:1],,,1/8,,4h[8:1]/2h[8:1],,,7h[8:1]/5h[8:1],,,8/1,,
{16}5h[8:1]/7h[8:1],,,2h[8:1]/4h[8:1],,,1/8,,{4}6-1[8:1]/3-8[8:1],3b/6b,
&inote_6=(152)
{1},
{16}4/5,,,4/6,,,4/7,,5/4,,,5/3,,,5/2,,
{16}7/3,,,8/4,,,1/5,,8v5[8:1]/4v1[8:1],,,,8b/4b,,,,
{1}3qq8[4:5]/7qq4[4:5],
{8},,,,,1/5,2/6,,
{8}7/3,{16}6,4,,,5h[8:3],,,,2b,,2b,,,,
{8}3h[2:1],4,5,6h[8:1],,7b,7b,,
{8}4qq1[4:5]/8qq5[4:5],,,,,,,,
{8},,,,,2/6,7/3,,
{16}6/2,,3,5,,,4h[8:3],,,,7b,,7b,,,,
{8}6h[2:1],5,4,3h[8:1],,2b,2b,,
{4}2h[8:1]/4h[8:1],2h[8:1]/4h[8:1],3h[8:1]/5h[8:1],3h[8:1]/5h[8:1],
{4}7h[8:1]/5h[8:1],7h[8:1]/5h[8:1],6h[8:1]/4h[8:1],6h[8:1]/4h[8:1],
{4}4v7[8:1]/2h[8:1],1h[8:1],8v3[8:1]/6h[8:1],5h[8:1],
{16}4b/6b,,,2b/8b,,,7bp3[8:1]/3b,,{4},1b,
{16}3/8,,2,1,2,,2,1,{8}2,3,5,6,
{16}7/4,,6,5,6,,6,5,{8}6,7,8,1,
{16}2/5,,3,4,3,,4,5,{8}4,3,2,1,
{16}5b/3b,,,7b/1b,,,2bq6[8:1]/6b,,{4},8b,
{16}3h[8:1]/1,,,7h[8:1]/1,,,{8}5v2[8:1],5v8[8:1],5b,5b,,
{16}2h[8:1]/4,,,6h[8:1]/4,,,{8}8v3[8:1],8v5[8:1],8b,8b,,
{16}6h[8:1]/8,,,2h[8:1]/8,,,{8}4-7[8:1],4-1[8:1],4b,4b,8h[4:1],
{4},{8}3/7,4-1[8:1],6-1[8:1],4,6,,
{16}7h[8:1]/5,,,3h[8:1]/5,,,{8}1-5[8:1],8-4[8:1],1b,8b,,
{16}6h[8:1]/8,,,2h[8:1]/8,,,{8}4-8[8:1],5-1[8:1],4b,5b,,
{16}7h[8:1]/5,,,3h[8:1]/5,,,{8}1-5[8:1],8-6[8:1],1b,8b,2h[4:1],
{4},{8}7/3,8-5[8:1],2-5[8:1],8,2,,
{8}3q5[8:3]/6h[4:1],,,7-4[8:1],,7,,,
{8}3qq5[8:3]/6h[4:1],,,7-4[8:1],,7,,,
{8}2q5[8:3]/6h[4:1],,,7-4[8:1],,7,,,
{8}2qq5[8:3]/6h[4:1],,,7h[4:1],,{16},,6,4,6,,
{8}3h[4:1]/5q8[8:5],,,2,1-4[8:1],,1,,
{4}7<4[4:1],4z8[8:3],2-6[8:1],2b,
{16}5h[8:1]/7h[8:1],,,2h[8:1]/4h[8:1],,,1/8,,5h[8:1]/7h[8:1],,,2h[8:1]/4h[8:1],,,1/8,,
{4}3h[4:1]/6h[4:1],,7b-4[8:1]/2b-5[8:1],7/2,
{4}7p3[8:1]/3p7[8:1],3/7>4[4:1],6,8z4[4:1],
{8}8/2-6[8:1],,2,8-6[8:1],4-2[8:1],8b,4b,,
{16}7h[16:3]/3,,4,4,,5,6,5,6h[16:3],,4,4,,1,,,
{16}8,,,7,,,{8}7,,1,8,,
{4}2q6[8:1]/6q2[8:1],6/2<5[4:1],3,1s5[4:1],
{8}1/7-3[8:1],,7,1-3[8:1],5-7[8:1],1,5,,
{16}1/2,,3,4,,6,5,,8h[8:1]/7h[8:1],,,1/6,,,3/4,,
{16}1h[8:1]/2h[8:1],,,8/3,,,4/7,,6,5,7,4,1<6[8:1],2,8,3,
{8}1b>4[8:1],,1b-5[8:1],,1b,8>3[8:1],8,8b<5[8:1],
{8},8b-4[8:1],,8b,,8,1/7,2/6,
{16}7-4[6:1]/3,,,2,,,1,,2-5[6:1]/6,,,7,,,8,,
{16}1-6[6:1],,,2,,,3,,{4}4w8[8:1],4,
{8}1b-5[8:1]/7b-5[8:1],,1b-3[8:1]/7b-3[8:1],,1b/7b,,2/4,1b^3[8:1]/5b^7[8:1],
{8},1b-5[6:1]/5bs1[4:1],,1b/5b,,,7-4[3.16##0.2]/3-8[3.16##0.2],,
{1}3h[2:3]/7h[2:3],
{4},,,3b/7b,
{4}1-5[8:1],4-8[8:1],2-6[8:1],7-3[8:1],
{8}5-1[8:1],,8,,{8}6h[4:1],3,3,,
{16}7/3,,6,5,,4,5h[8:3],,,,2b,,2b,,,,{8}4h[4:3],
{8}8,6,8,7,6b,6b,,
{4}8-4[8:1],5-1[8:1],7-3[8:1],2-6[8:1],
{8}4-8[8:1],,1,,{8}3h[4:1],6,6,,
{16}2/6,,3,4,,5,4h[8:3],,,,7b,,7b,,,,{8}5h[4:3],
{8}1,3,1,2,3b,3b,,
{16}5h[8:1]/7h[8:1],,,2h[8:1]/4h[8:1],,,1/8,,4h[8:1]/2h[8:1],,,7h[8:1]/5h[8:1],,,8/1,,
{16}5h[8:1]/7h[8:1],,,2h[8:1]/4h[8:1],,,1/8,,{4}6-1[8:1]/3-8[8:1],3b/6b,
