&title=いいねってYEAH!
&artist=じーざす
&first=0
&des=MYOU
&lv_5=13
&inote_5=(180)
{1},
{8}C,,C,,C,,,1,
{8}1>4[8:1],,,7,7<4[8:1],,,3,
{8}3,4,3,5,4-8[8:1],,,5,
{8}5<8[8:1],,,3,3>8[8:1],,,7,
{8}7,8,7,1,8w4[8:1],,,,
{4}6-3[8:1]/3,2,1/2-5[8:1],8,
{4}7-4[8:1]/4,3,2-5[8:1]/5,6,
{4}6-2[8:1]/4-2[8:1],,3-1[8:1]/5-1[8:1],,
{4}8xb-4[8:1],2xbv8[8:2]*v5[8:2],,,
{8}7h[4:1]/1,,2,2,5/3<6[8:1],,7,,
{8}75,6,4,4,3x-8b[8:1]/5x,,8x,,
{8}7h[4:1]/1,,2,3,6/4-1[8:1],,5h[4:1],,
{8}2>5[8:1],2,6,,6x-1b[8:1],6,1x,,
{8}2h[4:1]/8,,8,7,4/6>3[8:1],,2,,
{8}24,3,6,5,8x-4b[8:1],,2x,,
{8}6h[4:1]/1,,2,3,5/4>1[8:1],,6h[4:1],,
{8}2,3,4/7h[4:1],,3,2,1h[4:7]/4,,
{8}B5,,B4,,B6,,B3,,
{8}B7,,B2,,8x,1x/8xhb[8:15],,,
{8}E4,,E6,,E3,,E7,,
{8}E2,,E8,,1x,8x/1xh[8:7],,,
{8}B6,,B3,,8x,1x/8xhb[8:7],,,
{8}E3,,E7,,1x,8x/1xh[8:3],,,
{8}4p7[4:1],,1,,2,,3-6-3-6-3b[8:7]/6,36,
{1},
{8}7h[8:1],,6h[8:1]/4h[8:1],,5h[8:1]/3h[8:1],,24,2/4-1[8:1],
{8},2>5[8:1],,8h[4:1],,5,5,4,
{8}3h[8:1]/5h[8:1],,4h[8:1]/6h[8:1],,3h[8:1]/5h[8:1],,4h[8:1]/6h[8:1],,
{8}5/3pp1[8:3],,8h[4:1],,,8,8,1,
{8}2/4<7[8:1],,3,3v5[8:1],,8,8,7,
{8}46,4-2[8:1]/6-8[8:1],,4x/6x,,1,1-5[8:1],8,
{8}7,7h[4:1],,{16}5,6,5,6,4,5,4,5,3h[4:1],,
{8},4,3,2,1,8,7,6,
{4}5/3-1[8:1],4x-8[8:1],3x-1[8:1],4x-8[8:1],
{4}3x-1[8:1],4x-8-5[4:1],3xh[8:3],{8},4,
{8}34,2,5qq5[32:9]*pp5[32:9],5,,,,Cf,
{8},6,7,8,1,2,3,4,
{4}5/6<8[8:1],5xq1[8:1],6x<8[8:1],5xq1[8:1],
{4}6x<8[8:1],5xq4[4:1],6xh[8:3],{8},5,
{8}56,7,4qq5b[16:5]/6pp5b[16:5],46,,,,Cf,
{8},3,3,24,5,6,75,8,
{4}1/7-4[8:1],3x-8[8:1],7x-4[8:1],3x-8[8:1],
{4}7x-4[8:1],3x>5[4:1],7xh[8:3],{8},4,
{8}37,6,5,1/4h[4:1],,3,5,6,
{8}47,47,56,56,4,3,24,1,
{4}8/2>5[8:1],6x<1[8:1],2x>5[8:1],6x<1[8:1],
{4}2x>5[8:1],6xpp6[4:1],2xh[8:3],{8},5,
{8}34,5,46,7,28,2/8h[4:1],,{16}1,,
{8}8/7,6,4/5-1[8:1],3,2,2h[8:3],,,
{24}6x,5x,4x,3x,2x,1x,8x,7x,6x,5xh[16:10]/3xqq1[4:1],,,{2},
{24}3x,4x,5x,6x,7x,8x,1x,2x,3x,4xh[16:10]/6xpp8[4:1],,,{2},
{24}6x,5x,4x,3x,2x,1x,8x,7x,6x,5xpp7[4:1]/3xqq1[4:1],,,{2},
{4}26,26,3h[2:1]/7b,,
{4}E7/B6/B5,E3/B3/B4,B1/B8/E1f,,
{8}1b-5[8:1]/8b,1,7-4[8:1],7,4pp8[8:3],,3v1[8:1],,
{8}3b,,2-5[8:1]*-7[8:1]/7,,,,6,6,
{16}3-8[8:1],4,{8}3,6>3[8:1],6,1-6[8:1],2q6[8:1],,,
{8}8b,,4-8[8:1]/7-1[8:1],,,,1x>6[4:1],,
{8}4,,1<4[4:1],,4,,2V47[4:1],,
{8}4,,6V41[4:1],,4h[2:1],,,,
{8}1,1,8,7,56,4,35,2,
{4}3x-8[8:1]/6x-1b[8:1],3xb/6xb,3x-8[8:1]/6x-1b[8:1],3xb/6xb,
{16}27,,3,4,3,,6,5,{8}7-4[8:1],7,3-8[8:1],3,
{8}5-1[8:1],,8-3[8:1]*-5[8:1],,,,4,4,
{16}35,,2,4,2,,5,3,{8}5-8[8:1],6>3[8:1],7,,
{8}1b,,1-5[8:1]/2-8[8:1],,,,6x<3[4:1],5,
{8}4,,5-1[8:1],6,7p2b[8:1],,1bw5b[8:1],,
{48},Cf,,,,,,,,,,,{16}4x,3x,2x,1x,8x,,8x<5[8:1],,,,2,,
{8}3h[8:3],4,5,6,7h[8:3],8,1,2,
{8}3x/7x,7x/3x,7x/3x,7x/3x,7x/3x,7x/3x,7x/3x,{16}7x/3x,6x/4x>6[16:9],
{1}5xbh[1:1],
{8}3h[4:1],,2-5[8:1],,E1,,7,7-4[8:1],
{8},E1,2<3[8:3],,7x,,,,
{8}6h[4:1],,7-4[8:1],,E1,,2,2-5[8:1],
{8},E1,7pp4[8:3],,2xh[8:1],,,,
{8}3,,2/4<7[8:1],,E3,,1x,1x>4[8:1],
{8},5,5pp1[8:3],,4-2[8:1],,,,
{8}8,,7-4[8:1]/3,,2-5[8:1],,6,,
{8}7/3-7[8:1],,5<8[8:1],,{16}2xb,3x,4x,5x,6xb,7x,8x,1x,
{8}2xh[4:5]/7x-4[8:1],,,,5-8[8:1],,,,
{8}7xh[8:1],,7xh[8:1],,3b/6xh[8:1],,6xh[8:1]/2hb[4:6],,
{16}5x,,,5x<8b[8:1],{8},,,,7p4[8:3],,
{8},,,,5xh[8:1]/3b,,6xh[8:1]/2hb[4:7],,
{16}7x,,,7x<8[16:6],{8},,,,,,
{8}7,7,6,6,5-2[8:1]*-1[8:1],,,,
{8}3hb[4:1]/8,7,6,2hb[4:1]/7,6,5,1hb[4:1]/6,5,
{4}4w8b[8:1],4b,,6xh[4:1]/E6,
{24}4x,3x,2x,1x,8x,7x,6x,5x,4x,{8}3xh[16:10]/8x-4[16:3],,,,,
{24}5x,6x,7x,8x,1x,2x,3x,4x,5x,{8}6xh[16:10]/1x-5[16:3],,,,,
{24}4x,3x,2x,1x,8x,7x,6x,5x,4x,{8}3x-8[16:3]/8x-4[16:3],,,,,
{4}26,26,7b/3h[2:1],,
{4}E7/B7/B8,E3/B2/B1,B4/B5/E5,,
{1}4x-1[2:1]/5x-8[2:1],
{1}4x-1[2:1]/5x-8[2:1],
{1}4x>1[2:1]/5x<8[2:1],
{1}4x>1[2:1]/5x<8[2:1],
{4}3-6>2[2:1],7,7,7,
{4}6-3<7[2:1],2,2,2,
{8}18,18,18,18,18,27,36,4b/5b,
{16},,,,,,,,,,,,,,6,5,
{8}7-3[8:1],7,2-5[8:1],2,6pp1[8:3],,5v2[8:1],,
{8}5b,,3-6[8:1]*-8[8:1]/8,,,,7,8,
{16}16,,2,2,4,,6,6,{8}5,7,18,2,
{8}3b/7b,,5-1[8:1]/2-8[8:1],,,,8x<3[4:1],,
{8}58,,8>5[4:1],,58,,7V51[4:1],,
{8}75,,3V51[4:1],,35,,6,7,
{8}28,3,17,6,52,3,64,5,
{4}6x-1b[8:1]/3x-8[8:1],6xb/3xb,6x-1b[8:1]/3x-8[8:1],6xb/3xb,
{16}2,7,3,6,4,5,3,4,{8}2-5[8:1],1,6-1[8:1],7,
{8}4-8b[8:1],,8b-3[8:1]*-5[8:1],,,,4,53,
{16}6,2,6,2,7,3,6,4,{8}5-8[8:1],4-1[8:1],3,,
{8}8b,,1-5[8:1]/2-8[8:1],,,,6x<3[4:1],5,
{8}4,,5-1[8:1],6,7p2b[8:1],,1bw5b[8:1],,
{48},Cf,,,,,,,,,,,{16}4x,3x,2x,1x,8x,,8x<5[8:1],,,,2,,
{8}3h[8:3],4,5,6,7h[8:3],8,1,2,
{8}3x/7x,7x/3x,7x/3x,{16}7x/3x,6x/4x,{8}5xw1b[8:1],,,,
{8}8x,7,6,5h[4:1]/4,,8,7,6h[4:1],
{8},8<5[8:1],,4-8[8:1],,7,7h[4:1],,
{8}1x,2,3,4h[4:1]/5,,1,2,3-7[8:1],
{8},1>4[8:1],,8v7-5b[4:1]*v1-3[4:1],,,,,
{8}4,35,26,1/7h[4:1],,5,48,1<4[4:1]/3,
{8},4-8[8:1],,1>4[8:1],,7,6,5-1[8:1],
{8},56,7,8,17,26,35,4xb-7b[8:1]*-1[8:1],
{8},4xb,,2xb>4[8:1]/6xb>4b[8:1],2xb/6xb,
