&title=野良猫ハート(ヒロイン4人コーラスVer.)
&artist=ノラと皇女と野良猫ハート Original Sound Track "Open Heart"
&wholebpm=
&des=Tane
&first=0.00
&lv_1=3
&lv_2=5
&lv_3=6
&lv_4=9
&lv_5=10+
&des_1=Tane
&des_2=Tane
&des_3=Tane
&des_4=Tane
&des_5=Tane
&inote_1=
(162){1},
{8}3,,,,
,,,,
{8}1,,,,
,,,,
{8}6,,,,
,,,,
{8}8,,,,
,,,,
{8}36,,,,
,,,18,
{8},,,,
,,,,
{2}1,8,
{2}2,7,
{8},4,,,
,,,5,
{8},,,,
,,,,
{4}1,,8,,
{4}2,,7,,
{4}3,,6,,
{4}45,,,,
{4}8,,2,,
{4}7,,3,,
{4}6,,45,,
{4}4h[2:1]/5h[2:1],,,,
{4}4,,5,,
{4}3,,6,,
{4}2,,7,,
{4}18,,,,
{4}4,,6,,
{4}3,,7,,
{1}3V58[4:5]/6V41[4:5],
{4},,,,
{4}3h[1:1],,,,
{4},,,,
{4}6h[1:1],,,,
{4},,,,
{4}1,,8,,
{4}2,,7,,
{8}36,,,,
,,,7b/8b,
{8},,,,
1b/2b,,,,
{4}34,,,,
{4}56,,,,
{8}2,,,,
,,,7,
{8},,,,
,,,,
{8}3,,,,,,,,
{8}3,,,,,,,,
{4}6,,,,
{8}6,,,,
,,,,
{8}1,,,,
,,,,
{8},,,1b/8b,
,,,,
{4}4,,5,,
{4}3,,6,,
{8}2v4[2:1],,,,
,,,7v5[2:1],
{8},,,,
,,,,
{8}4,,,,
5,,,,
{8}4h[4:11],,,,
,,,,
{8},,,,
,,,,
{4},,,,
{4}1,,8,,
{4}2,,7,,
{8}1b,,,,
,,,8b,
{8},,,,
,,,,
{8}5,,,,
4,,,,
{8}7<3[4:6],,,,
,,,,
{8},,,,
,,,,
{8},,,,
,,,,
{8}1b,,,,
,,,8b,
{8},,,,
,,,,
{8}2,,,,
7,,,,
{8}1,,,,
8,,,,
{8}3,,,,
6,,,,
{8}1,,,,
8,,,,
{8}8,,,,
8,,,,
{8}1,,,,
1,,,,
{8}1b,,,,
,,,,
{8}8b,,,,
,,,,
{8},,,,
,,,,
{1},,,,,,,,E
&inote_2=
(162){1},
{8}3,,,,
,,,,
{8}1,,,,
,,,,
{8}6,,,,
,,,,
{8}8,,,,
,,,,
{8}36,,,,
,,,18,
{8},,,,
,,,,
{2}1,8,
{2}2,7,
{8},4,,,
4,,,5,
{8},,5,,
,,,,
{4}1,,8,,
{4}2,,7,,
{4}3,,6,,
{4}45,,,,
{4}8,,2,,
{4}7,,3,,
{4}6,,45,,
{4}4h[2:1]/5h[2:1],,,,
{4}4,,5,,
{4}3,,6,,
{4}2,,7,,
{4}18,,,,
{4}4,,6,,
{4}3,,7,,
{1}3V58[4:5]/6V41[4:5],
{4},,,,
{4}3h[1:1],,,,
{4}6,,,,
{4}6h[1:1],,,,
{4}3,,,,
{4}1,,8,,
{4}2,,7,,
{8}36,,,,
,,,7b/8b,
{8},,,,
1b/2b,,,,
{4}34,,34,,
{4}56,,56,,
{8}2^5[2:1],,,,
,,,7^4[2:1],
{8},,,,
,,,,
{8}3V15[4:6],,,,,,,,
{8},,,,,,,,
{4}6V84[4:6],,,,
{8},,,,
,,,,
{8}1,,,,
8,,,18,
{8},,,1b/8b,
,,,,
{4}4,4,5,5,
{4}3,3,6,6,
{8}2v4[2:1],,,,
,,,7v5[2:1],
{8},,,,
,,,,
{8}4,,4,,
5,,5,,
{8}4h[4:11],,,,
,,,,
{8},,,,
,,,,
{4},,,,
{4}1,1,8,8,
{4}2,2,7,7,
{8}1b,,,,
,,,8b,
{8},,,,
,,,,
{8}5,,5,,
4,,4,,
{8}7<3[4:6],,,,
,,,,
{8},,,,
,,,,
{8},,,,
,,,,
{8}1b,,,,
,,,8b,
{8},,,,
,,,,
{8}2,,2,,
7,,7,,
{8}1,,1,,
8,,8,,
{8}3,,3,,
6,,6,,
{8}1,,1,,
8,,8,,
{8}8,,1,,
8,,1,,
{8}7,,2,,
7,,2,,
{8}1b,,,,
8b,,,,
{8}2b,,,,
7b,,,,
{8},,,,
,,,,
{1},,,,,,,,E
&inote_3=
(162){1},
{8}3-1[2:1],,,,
,,,,
{8}1-5[2:1],,,,
,,,,
{8}6-8[2:1],,,,
,,,,
{8}8-4[2:1],,,,
,,,,
{8}36,,,,
,,,18,
{8},,,,
,,,,
{2}1,8,
{2}2,7,
{8},4,,,
4,,,5,
{8},,5,,
,,,,
{4}1,,8,,
{4}2,,7,,
{4}3,6,45,,
{4},,1,,
{4}8,,2,,
{4}7,,3,6,
{4}27,,{16},,,,
,,45,,
{16},,,,
,,45,,
,,,,
,,,,
{4}4,,5,,
{4}3,,6,,
{4}2,7,18,,
{4},,5,,
{4}4,,6,,
{4}3,,7,,
{16}36,,,,
,,,,
36,,,,
,,4-1[2:1]/5-8[2:1],,
{4},,,,
{4}3h[1:1],,,,
{4}6h[1:1],,,,
{4}3h[1:1],,,,
{4}6,,3,,
{4}1,1,8,8,
{4}2,2,7,7,
{8}36,,,,
,,,7b/8b,
{8},,,,
1b/2b,,,,
{4}4,4,5,5,
{4}3,3,6,6,
{8}2^5[2:1],,,,
,,,8p3[2:1],
{8},,,,
,,,,
{8}3V15[4:3],,,,,,,,
{8}6V84[4:3],,,,,,,,
{4}2V41[4:3],,,,
{8}7V58[4:3],,,,
,,,,
{8},12,,,
87,,,18,
{8},18,,1b/8b,
,,,,
{4}4,5,5,4,
{4}2,7,7,2,
{8}27,,,45,
,,,1h[4:3]/8h[4:3],
{8},,,,
,,,,
{8}4,,3,,
5,,6,,
{8}7h[4:11],,,,
,,,,
{8},,,,
,,,,
{4},,,,
{4}1,8,8,1,
{4}3,6,6,3,
{8}1b/5b,,,,
,,,4b/8b,
{8},,,,
,,,,
{8}5,,6,,
4,,3,,
{8}7<3[4:3],,,,
,,,,
{8}1h[4:7],,,,
,,,,
{8},,,,
,,,,
{8}1b,,,,
,,,8b,
{8},,,,
,,,,
{8}2,,4,,
7,,5,,
{8}1,,3,,
8,,6,,
{8}3,,2,,
6,,7,,
{8}3,,1,,
6,,8,,
{8}8,,3,,
1,,6,,
{8}8,,5,,
1,,4,,
{8}1b,,,,
8b,,,,
{8}2b,,,,
7b,,,,
{8},,,,
,,,,
{1},,,,,,,,E
&inote_4=
(162){1},
{8}3-1[2:1],,,,
,,,,
{8}1-5[2:1],,,,
,,,,
{8}6-8[2:1],,,,
,,,,
{8}8-4[2:1],,,,
,,,,
{8}3-1[2:1]/6-8[2:1],,,,
,,,1-5[2:1]/8-4[2:1],
{8},,,,
,,,,
{8}18,,,,
27,,,,
{2}45,36,
{8},2,2,,
7,7,,1,
{8}1,,8,8,
,,,,
{4},1,,8,
{4},2,,7,
{4},3,6,4^2[4:1]/5^7[4:1],
{4},,1,,
{4}8,,2,,
{4}7,,3,6,
{4}2^4[4:1]/7^5[4:1],,{16},,,,
,,45,,
{16},,,,
,,45,,
,,,,
,,,,
{4},4,,5,
{4},3,,6,
{4},2,7,1^4[4:1]/8^5[4:1],
{4},,5,,
{4}4,,6,,
{4}3,,7,2,
{16}36,,,,
,,,,
3h[16:3]/6h[16:3],,,,
,,3qq4[4:3]/6pp5[4:3],,
{4},,,,
{4}3h[1:1],,,,
{4}4h[1:1],,,,
{4}5h[2:1],,6h[2:1],,
{4}4h[2:1],,5,,
{4}8,7,6,5,
{4}1,2,3,4,
{8}4h[4:3]/5h[4:3],,,,
,,,45,
{8},27,27,,
45,,8b/1b,,
{4}12,4,78,5,
{4}13,4,68,5,
{8}1q6[8:3]/2^5[8:3],,,,
,,,7^4[2:1]/8p3[2:1],
{8},,,,
,,,,
{8}3V15[2:1],,6,,6,,6,,
{8}6V84[2:1],,3,,3,,3,,
{4}2V41[2:1],7,7,7,
{8}7V58[2:1],,2,,
2,,2,,
{8},1,1,,
8,8,,78,
{8},81,,1b/2b,
,,,,
{4}4-2[8:1],5,5-7[8:1],4,
{4}2-4[8:1],7,7-5[8:1],2,
{8}2h[4:1]/7h[4:1],,,4v1[8:1]/5v8[8:1],
,,,18,
{8},27,,36,
,,,,
{8}45,,3,,
45,,6,,
{8}7h[4:11],,,,
,,,,
{8}2-7[4:3],,,,
,,,,
{4},,,,
{4}1-3[8:1],8,8-6[8:1],1,
{4}3-1[8:1],6,6-8[8:1],3,
{8}1bV36[2:1]/5bV72[2:1],,,,
,,,4bV27[2:1]/8bV63[2:1],
{8},,,,
,,,,
{8}45,,6,,
45,,3,,
{8}2h[4:3]/7<3[2:1],,,,
,,,,
{8}2,,1,,
8,,7,,
{8}6,,5,,
4,,3,,
{8}4bqq5[2:1]/5bpp4[2:1],,,,
,,,4qq1[8:5]/5pp8[8:5],
{8},,,,
,,,,
{8}28,,4,,
17,,5,,
{8}12,,3,,
78,,6,,
{8}34,,2,,
56,,7,,
{8}35,,1,,
46,,8,,
{8}18,,3,,
18,,6,,
{8}28,,5,,
17,,4,,
{8}1b,,1,,
8b,,8,,
{8}2b,,2,,
7b,,7pp1[4:5],,
{8},,,,
,,,,
{8},,,,
,3bqq5[1:2]/6bpp4[1:2],,,
{8},,,,
,,,,
{8},,,,
,,,,
{1},,,,,,,,E
&inote_5=
(162){1},
{8}5,4,3,2,
,,,,
{8}4,5,6,7,
,,,,
{8}4,3,2,1,
,,,,
{8}5,6,7,8,
,,,,
{8}78,,6,5,
,47,,12,
{8},,,,
25,,78,,
{8}16,,3,4,
,65,,,
{16}12,,38,,
47,,5,4,
5,,34,,
16,,,,
{8},2-4[8:1],2,,
7-5[8:1],7,,1-5[8:1],
{8}1,,8-4[8:1],8,
,,,,
{4}4-2[8:1],1,5-7[8:1],8,
{4}5-1[8:1],2,4-8[8:1],7,
{8}5-1[8:1],,2-4[8:1],,6-8[8:1],,1-4[4:1]*-6[4:1],1,
{8},,,,
27,,1,1^3[8:1],
{8},,8,8^6[8:1],
,,1,1^4[8:1],
{4},8,7,6,
{8}5,,4,4pp1[4:3]*qq7[4:3],
,,,,
{4},,,,
{4}8-6[8:1],5,1-3[8:1],4,
{4}1-5[8:1],6,8-4[8:1],3,
{8}1-3[8:1],,4-8[8:1],,1-5[8:1],,
6qq4[4:1]*^1[4:1],6,
{8},,,,
36,,8,8^6[8:1],
{8},,1^4[8:1],,
1,,5,5^7[8:1],
{8},,,4,
6,3,5,4,
{8}45,,36,,
27,27,,1-4[8:1]/8-5[8:1],
{8},18,,36,
,,,,
{4}3pp6[8:5],,,,
{4}6p3[8:5],,,,
{8}2p7[4:2],,,,
,,,7pp2[8:5],
{4},,,,
{4}1pp4[8:5],,,,
{4}2pp5[8:5]/7qq4[8:5],,,,
{8}4pp1[4:2]/5qq8[4:2],,,,
,,,18,
{8},27,27,36,
4-1[8:1]/5-8[8:1],,4b/5b,,
{4}3/4-1[8:1],45,5-8[8:1]/6,45,
{4}2/4-1[8:1],45,5-8[8:1]/7,45,
{8}12,,38,1-6[8:1]/2-5[8:1],
,12,,47,
{8},3-8[8:1]/4-7[8:1],25,34,
,,,,
{8}3V15[4:1],,5-1[4:1],,1-3[4:1],,4,4,
{8}6V84[4:1],,4-8[4:1],,8-6[4:1],,5,5,
{4}3-7[8:1],4-6[8:1],3-8[8:1],4-7[8:1],
{8}3-1[8:1],,4-8[8:1],,
3,,,72,
{8},12,12,,
78,78,,8-4[8:1]/7,
{8},8/1-5[8:1],,1b/2b,
,,,,
{8}3,4,2,1^4[4:1],
,6,7,8qq6[4:1],
{8},4,3,2,
,,,2,
{8}1,,7,8,
,45,,6-8[4:1],
{8},8v1[4:1],,1-3[4:1],
,,,,
{8}45,,3,2,
,18,,7h[8:3],
{8},,6h[4:1],,
5h[4:1],,4h[4:1],,
{8}3h[4:1],,2,2h[2:1],
,,,7h[8:3],
{4},8h[4:1],1h[4:1],2,
{8}6,5,7,8^5[4:1],
,3,2,1pp3[4:1],
{8},5,6,7,
,,,7,
{8}8,,2,1,
,5s1[8:1]/4z8[8:1],,4b/5b,
{8},1s5[8:1]/8z4[8:1],,1b/8b,
,,,,
{8}45,,6,7,
,18,,2,
{8},,7v6[4:1],,
6^3[4:1],,3v2[4:1],,
{8},,,,
3h[4:1],,6h[8:3],2h[4:1],
{8},,1b-5[8:3]/5b<4[8:3],,
,,,,
{8}4bqq5[8:3]/5bpp4[8:3],,,,
,,,36,
{8},18,18,,
,,,,
{8}27,,6,5,
,47,,38,
{8},1/2-4[8:1],1,2,
,,,,
{8}56,,7,8,
,17,,28,
{8},14,1-7[4:1]/4V26[4:1],,
,,,,
{8}36,,2,1,
,78,,25,
{8},3/4>5[2:1],3,4,
,,,,
{8}1b-5[8:1],,1,,
7b-4[8:1],,7,,
{8}2b-5[8:1],,2,,
8b,,18,18,
{8},56,56,,
18,27,,34,
{8}34,,27,18,
,3bqq5[1:2]/6bpp4[1:2],,,
{8},,,,
,,,,
{8},,,,
,,,,
{1},,,,,,,,E
