&title=염라(Karma)
&artist=달의하루
&first=0
&des=Snorkel
&lv_5=12+
&inote_1=(132)
{1},{16},,,,,,,,4,5,,5,4b,,,,
36,,7,5,6,,6-1[8:1],5,7,,3-5[8:1],,2,,8,,
7,,4,6,3,,6-1[8:1],3,5,,2v5[8:1],,3,,8,,
7h[8:1],,6h[8:1],,5h[8:1],,4pp7[8:3],,3,,,2,,,1,,
2h[8:1],,3h[8:1],,4h[8:1],,5qq4[8:2]*qq4[8:2],,6,,,7h[16:3],,,,,
63,,2,4,3,,3-8[8:1],4,2,,6-4[8:1],,7,,1,,
2,,5,3,6,,3-8[8:1],6,4,,7v4[8:1],,6,,1,,
2h[8:1],,3h[8:1],,4h[8:1],,5qq2[8:3],,6,,,7,,,8,,
1b,,3b/8b,,7,7,8b,,1bw5[12:1]/6b,,,1b,,,,,
36,,,3<5[16:5]/6h[16:9],,,,,,,,,,,,,
65,,,6-3[16:5]/5h[16:9],,,,,,,,,,,,,
34,,,3<5[16:5]/4h[16:9],,,,,,,,,,,,,
63,,,6-3[16:5]/3,,,,,7b,,,,,,,,
28,,,2V46[16:5]/8,,,,,6,,,,,,,,
71,,,7V53[16:5]/1,,,,,3,,,,,,,,
18,,,,{12}7,5,6,2,4,3,5,4,6,
{16}3-5[12:1]/7,,,6,,,7,7,5b,,,4b/6b,,,3b/5b,,
2/4pp8[2:1],,,2,,,3,,,3,,,2,,3,,
4qq5[2:1]/7,,,7,,,6,,,6,,,8,,7,,
6pp5[2:1]/2,,,2,,,3,,,3,,,1,,2,,
3qq4[2:1]/6,,,6,,,5,,,5,,,7,,6,,
7/5qq1[2:1],,,7,,,6,,,6,,,7,,6,,
5pp4[2:1]/2,,,2,,,3,,,3,,,1,,2,,
3qq4[2:1]/7,,,7,,,6,,,6,,,8,,7,,
6pp5[2:1]/3b,,,3,,,4b,,,4,,,2,,3,,
6/4-1[8:2],,3,5,,,5,,6-3[8:1]*-1[8:1],,,,,,,,
2/8-5[8:2],,7,1,,,1,,2-7[8:1]*-5[8:1],,,,,,,,
6/4-1[8:2],,3,5,,,5,,6-1[8:1],,7,,3,,4,4,
1b,,,5b/6b,,,3b/7b,,8b/5b,,,4b/3b,,,6b/2b,,
1pp5[4:2]*<6[8:1]/8,,,,,,,,7,,7,,7,,7,,
8qq4[4:2]/3,,3,,3,,3,,2,,2,,2,,2,,
5/1pp4[2:1],,5,,6,,6,,7,,7,,8,,8,5-2[8:1],
,,,7-3[12:1],,,1,,2,2,4,4,{32}1,8,7,6,5,4,3,2,
{16}8-4[8:1]/1,,7,,1<6[8:1]/8,,2,2,1p5[8:1],,,3,1,,2,,
1-5[8:1]/8,,2,,8>3[8:1]/1,,7,7,8q4[8:1],,,6,8,,7,,
18,,7,8,6,1,5,2,7-3[8:1],3,8,4,,,,,
24,,35,4h[8:1]/6h[8:1],,,7V58[4:1]/5>2[8:1],,,,7b,,,,,,
1-5[8:1]/2,,8,,1/7,,6,6,5>2[8:1],7,4,6,5,,1,,
8-4[8:1]/7,,1,,8/2,,3,3,4<7[8:1],2,5,3,4,,8,,
12,,8,3,7,4,6,1,5,2,7,3,64,,53,,
24,3,7,5,6,2,4h[4:1],,,,{24}3,2,1,4-8[8:1],3,2,1,8,7,
{16}46,,5>2[8:1],5,1,,57,,8,8,1,7,5-1[8:1],,76,,
53,,4<7[8:1],4,8,,42,,1,1,8,2,4-8[8:1],,23,,
46,,5>2[8:1],5,1,,57,,8,8,1,7,5-1[8:1],,6-8[8:1],6,
5qq4[4:1],,6,,5,,7,,6h[8:1],,4h[8:1],,5-1[8:1],,3,,
53,,4<7[8:1],4,8,,42,,1,1,8,2,4-8[8:1],,23,,
46,,5>2[8:1],5,1,,57,,8,8,1,7,5-1[8:1],,76,,
53,,4<7[8:1],4,8,,42,,1,1,8,2,4-8[8:1],,3-1[8:1],3,
4pp5[4:1],,3,,4,,2,,3,,12,,34,,56,,
8-6[8:1]/7,,,1,8,,2,,3,5,3,6,3,7,3,8,
1-3[8:1]/2,,,8,1,,7,,6,4,6h[8:1],,3,5,2,4,
13,,7-5[8:1],8,,8,7,,4,,7-4[8:1],8,,8,7,,
3,,7-3[8:1],8,,8,7,,2h[8:1],,4h[8:1],,5h[8:1],,7h[8:1],,
1-5[8:1],8,,8,1>4[8:1],7,,7,1,6,,6h[8:1],,5,47,,
8-4[8:1],1,,1,8<5[8:1],2,,2,8,3,,3,3,4,52,,
16,,7,5,7,,38,,2,4,2,,8,1,7,8,
6,1,5<4[4:1],2,4,3,,,,,1,,18,,,,
2/7h[4:1],,6,,2h[4:1],,3,,7,5,6,4,5,3,4,2,
{1}3>6[2:1],
{4}4-1[8:3],,5<4[8:7]*<4[8:7],,
8<5[8:3],,,2b/7b,
{16}
1b/8b,,6,5,,3,4,,5,4,5,4,6,3,45,,
18,,7,65,,2,3/4h[8:3],,,,3,,{32}2-5[8:1],1,8,7,6,5,4,3,
{16}1<6[8:1]/2,,8,,12,,3qq8[8:3],3,,4,4,,5,,6,,
&inote_5=(132)
{1},{16},,,,,,,,4,5,,5,4b,,,,
36,,7,5,6,,6-1[8:1],5,7,,3-5[8:1],,2,,8,,
7,,4,6,3,,6-1[8:1],3,5,,2v5[8:1],,3,,8,,
7h[8:1],,6h[8:1],,5h[8:1],,4pp7[8:3],,3,,,2,,,1,,
2h[8:1],,3h[8:1],,4h[8:1],,5qq4[8:2]*qq4[8:2],,6,,,7h[16:3],,,,,
63,,2,4,3,,3-8[8:1],4,2,,6-4[8:1],,7,,1,,
2,,5,3,6,,3-8[8:1],6,4,,7v4[8:1],,6,,1,,
2h[8:1],,3h[8:1],,4h[8:1],,5qq2[8:3],,6,,,7,,,8,,
1b,,3b/8b,,7,7,8b,,1bw5[12:1]/6b,,,1b,,,,,
36,,,3<5[16:5]/6h[16:9],,,,,,,,,,,,,
65,,,6-3[16:5]/5h[16:9],,,,,,,,,,,,,
34,,,3<5[16:5]/4h[16:9],,,,,,,,,,,,,
63,,,6-3[16:5]/3,,,,,7b,,,,,,,,
28,,,2V46[16:5]/8,,,,,6,,,,,,,,
71,,,7V53[16:5]/1,,,,,3,,,,,,,,
18,,,,{12}7,5,6,2,4,3,5,4,6,
{16}3-5[12:1]/7,,,6,,,7,7,5b,,,4b/6b,,,3b/5b,,
2/4pp8[2:1],,,2,,,3,,,3,,,2,,3,,
4qq5[2:1]/7,,,7,,,6,,,6,,,8,,7,,
6pp5[2:1]/2,,,2,,,3,,,3,,,1,,2,,
3qq4[2:1]/6,,,6,,,5,,,5,,,7,,6,,
7/5qq1[2:1],,,7,,,6,,,6,,,7,,6,,
5pp4[2:1]/2,,,2,,,3,,,3,,,1,,2,,
3qq4[2:1]/7,,,7,,,6,,,6,,,8,,7,,
6pp5[2:1]/3b,,,3,,,4b,,,4,,,2,,3,,
6/4-1[8:2],,3,5,,,5,,6-3[8:1]*-1[8:1],,,,,,,,
2/8-5[8:2],,7,1,,,1,,2-7[8:1]*-5[8:1],,,,,,,,
6/4-1[8:2],,3,5,,,5,,6-1[8:1],,7,,3,,4,4,
1b,,,5b/6b,,,3b/7b,,8b/5b,,,4b/3b,,,6b/2b,,
1pp5[4:2]*<6[8:1]/8,,,,,,,,7,,7,,7,,7,,
8qq4[4:2]/3,,3,,3,,3,,2,,2,,2,,2,,
5/1pp4[2:1],,5,,6,,6,,7,,7,,8,,8,5-2[8:1],
,,,7-3[12:1],,,1,,2,2,4,4,{32}1,8,7,6,5,4,3,2,
{16}8-4[8:1]/1,,7,,1<6[8:1]/8,,2,2,1p5[8:1],,,3,1,,2,,
1-5[8:1]/8,,2,,8>3[8:1]/1,,7,7,8q4[8:1],,,6,8,,7,,
18,,7,8,6,1,5,2,7-3[8:1],3,8,4,,,,,
24,,35,4h[8:1]/6h[8:1],,,7V58[4:1]/5>2[8:1],,,,7b,,,,,,
1-5[8:1]/2,,8,,1/7,,6,6,5>2[8:1],7,4,6,5,,1,,
8-4[8:1]/7,,1,,8/2,,3,3,4<7[8:1],2,5,3,4,,8,,
12,,8,3,7,4,6,1,5,2,7,3,64,,53,,
24,3,7,5,6,2,4h[4:1],,,,{24}3,2,1,4-8[8:1],3,2,1,8,7,
{16}46,,5>2[8:1],5,1,,57,,8,8,1,7,5-1[8:1],,76,,
53,,4<7[8:1],4,8,,42,,1,1,8,2,4-8[8:1],,23,,
46,,5>2[8:1],5,1,,57,,8,8,1,7,5-1[8:1],,6-8[8:1],6,
5qq4[4:1],,6,,5,,7,,6h[8:1],,4h[8:1],,5-1[8:1],,3,,
53,,4<7[8:1],4,8,,42,,1,1,8,2,4-8[8:1],,23,,
46,,5>2[8:1],5,1,,57,,8,8,1,7,5-1[8:1],,76,,
53,,4<7[8:1],4,8,,42,,1,1,8,2,4-8[8:1],,3-1[8:1],3,
4pp5[4:1],,3,,4,,2,,3,,12,,34,,56,,
8-6[8:1]/7,,,1,8,,2,,3,5,3,6,3,7,3,8,
1-3[8:1]/2,,,8,1,,7,,6,4,6h[8:1],,3,5,2,4,
13,,7-5[8:1],8,,8,7,,4,,7-4[8:1],8,,8,7,,
3,,7-3[8:1],8,,8,7,,2h[8:1],,4h[8:1],,5h[8:1],,7h[8:1],,
1-5[8:1],8,,8,1>4[8:1],7,,7,1,6,,6h[8:1],,5,47,,
8-4[8:1],1,,1,8<5[8:1],2,,2,8,3,,3,3,4,52,,
16,,7,5,7,,38,,2,4,2,,8,1,7,8,
6,1,5<4[4:1],2,4,3,,,,,1,,18,,,,
2/7h[4:1],,6,,2h[4:1],,3,,7,5,6,4,5,3,4,2,
{1}3>6[2:1],
{4}4-1[8:3],,5<4[8:7]*<4[8:7],,
8<5[8:3],,,2b/7b,
{16}
1b/8b,,6,5,,3,4,,5,4,5,4,6,3,45,,
18,,7,65,,2,3/4h[8:3],,,,3,,{32}2-5[8:1],1,8,7,6,5,4,3,
{16}1<6[8:1]/2,,8,,12,,3qq8[8:3],3,,4,4,,5,,6,,
7<4[8:1],,6,,7/8,,1qq6[8:3],1,,2,2,,3,,4,,
3b-8[8:1],,2,,37,,6,1,5,4,7,3,8,2,7,1,
26,,48,,3,7,5h[8:3],,,,6,,{32}7,8,1,2,3,4,5,6,
{16}87,,1-5[8:1],6,2,,18,,7<4[8:1],3,6,,78,,3,3,
12,,8-4[8:1],3,7,,81,,2>5[8:1],6,3,,21,,6,6,
87,,1-5[8:1],6,2,,18,,7<4[8:1],3,6,,78,,3,3,
1-5[8:1]/2,,8-6[8:1],,1-3[8:1],,8-4[8:1],,1,,8,,1b,,3,,
12,,8-4[8:1],3,7,,81,,2>5[8:1],6,3,,21,,6,6,
87,,1-5[8:1],6,2,,18,,7<4[8:1],3,6,,78,,3,3,
12,,8-4[8:1],3,7,,81,,2>5[8:1],6,3,,21,,6,6,
8-4[8:1]/7,,1-3[8:1],,8-6[8:1],,1-5[8:1],,8,,1,,8b,,6,,
78,,1,3,,3,4h[8:2],,5,,2-5[8:1],,5-1[8:1],,1p6[8:3],,
,,7,,,,,,8,8,5,,7,7,4,,
21,,8,6,,6,5h[8:2],,4,,7-4[8:1],,4-8[8:1],,8q3[8:3],,
,,2,,,,,,1,1,4,,2,2,5,3,
6-1[8:1],,7,,6/2-5[8:1],,3,3,8-4[8:1],,7>2[8:1],,8,,7,,
5h[4:3],,,,,,,,,,,,{32}3-7[12:1],2,1,8,7,6,5,4,3b/2b,,,,,,
