&title=灼熱 Lost Summer Dayz
&artist=DJ Mass MAD Izm* feat.すみはね
&first=0
&des=Yuzukeai
&lv_5=13
&inote_5=(168)
{4},,,,
{16}E4,E7,E3,E8,
{4}1x-4[2:1],,,,
{16}8,,5h[16:1],,6h[8:1],,,,{16}3h[16:1],,4h[16:1],,{16}3h[16:1],,4h[16:1],,
1-4[2:1],,,,,,,,,,,,,,,,8,,5h[16:1],,6h[16:1],,7,,2h[16:1],,3h[16:1],,4,,,,
8-5[2:1],,,,,,,,,,,,4h[16:1],,3h[16:1],,2,,7h[16:1],,6h[16:1],,5,,1xh[8:1],,5h[16:1],,6h[16:1],,7h[16:1],,8-5[2:1],,,,,,,,,,,,,,,,B2/A2,,B6/A6,,A3/E4,,E8/A7,,A4,B5,C,B1,A8,,,,1x/8x,,,,3h[4:1],,,,4,,,4,,,2,,25,,,,6h[4:1],,,,5,,6,,,47,,,47,,,,3h[4:1],,,,5,,,5,,,2,,2/6v5[8:1],,,,4,,,,2v3[8:1],,2,,,5x,,,
6h[4:1],,,,4h[4:1],,,,5,,,5,,,6,,46,,,,5h[4:1]/3v4[8:1],,,,,,6,,,7,,,61,,,,2h[4:1],,,,4,,,4,,,3,,35,,,,74,,,,3,,E5,,,2,6,2,6bqq3b[8:6],,,,,,,,,,,,3xpp6[8:6]*pp6[8:6],,,,,,,,,,1,,1h[8:1],,,,,,,,2-4[8:1],,,,5,,6,,7h[4:1],,,,5-3[8:1],,,,5-7[8:1],,,,2,,3,,8-4[8:1]/4,,,,3pp6[8:8]*pp6[8:8],,,,,,,,,,,,,,,,6xqq3[8:8],,,,,,,,,,,,,,8h[8:1],,,,,,7-5[8:1],,,,4,,3,,2h[4:1],,,,4-6[8:1],,,,4-2[8:1],,,,7,,6,,1-4[8:1]/5-8[8:1],,,,,,,,3h[8:1]/7h[8:1],,,,5pp5[4:1]/1,,,,,,,,1-5[8:1],,1,,4^7[8:1],,,,1-5[8:1],,1,,4^7[8:1],,,,2,,3,,4h[8:1]/8h[8:1],,,,2^3v1[4:1]/6,,,,,,,,4-7[8:1],,4,,2-6[8:1],,,,1-5[8:1],,1,,4^2[8:1],,,,7qq6qq5qq4[8:5],,,,1hx[2:1],,,,,,,,,,,,2-6[8:1],,2,,4^7[8:1],,,,2-6[8:1],,2,,4^7[8:1],,,,1,,2,,38,,4,,5h[8:1]/1h[8:1],,,,2,,15,,4h[8:1]/8h[8:1],,,,6,,5,5,7,,3^8b[8:3],5,2^8b[8:2],4,1^8b[8:1],,,,,,E4/B4,,6-3[8:1],,6x,,3,,,,2pp3pp4pp5[8:5],,2,,B1/E1/B8,,,,,,,,,,,,7h[4:1],,B3,,,,E6/B5,,3-6[8:1],,3,,6,,,,7qq6qq5qq4[8:5],,7,,B8/E1/B1,,,,,,,,,,,,2h[4:1],,B6,,,,
3,,5-8[8:1],,5,,,,E2,E3,E4,E5,8h[8:1],,3x,,E8,E7,E6,E5,1pp1[8:3],,1,,7^4[8:1],,7,,,,,,8h[8:1],,4-8[8:1],,2,,,,,,3h[16:1],,4h[16:1],,5x/6x,,3,,4,4,2h[64:1],,6h[64:1],4h[64:1],7h[64:1],5h[64:1],6h[64:1],,5-8-5[4:1]/4,,3,,2,,,,3,,,,2/5pp5[4:1],,,3,,,3hx[8:1],,,,,,52,,,,2/5pp5[4:1],,,3,,,3xh[8:1],,,,,,52,,,,2/5pp5[4:1],,,3x,,,3xh[8:1],,,,,,25,,,,2/5pp5[4:1],,,3x,,,3xh[8:1],,,,,,34,,,,2/5pp5b[4:1],,,3,,,4,,4,,,,45,,,,2/5pp5[4:1],,,3,,,4,,4,,,,56,,,,2/5pp5b[4:1],,,3,,,4,,4,,,,67,,,,2/5-8[8:1],,,3,B6f,,4,,
4-1[8:1],,,,8^3[8:1],,,,7,,,6,,,8,,4-7[8:1],,7-5-2[4:1],,4,,,,8-4[8:1],,,,18,,,,
5-8[8:1],,,,1^6[8:1],,,,2,,,3,,,1,,4,,25,,3/6pp5[4:1],,,,5,,,,2,,,,5,3,6,4,5,,2,8,1-3[16:1],,,1x-7[16:1],,,1x,,4,4,6,6,3,7,4,6,5-3[16:1],,,5x-7[16:1],,,5x,,2-5[8:1],,,8,2,,7,,6-1[8:1],,,2,6,,3,,4,,8,8,2,,6^3[8:3],8,5^3[8:2],7,4^3[8:1],,,,,,5hx[1:1],,,,,,,,,,,,,,,,1h[16:1],,1,,7h[16:1],,7,,3,,4,,6,,5,,2h[1:1],,,,,,,,,,,,,,,,4h[8:1],,3h[8:1],,4,,,,7h[8:1],,5,5,6,,4,,2,,6,,4,,5h[16:1],,5h[16:1],,5,,3h[16:1],,3h[16:1],,3,,6h[16:1],,6,,4,,5,,6,,4h[16:1],,4,,8h[1:1],,,,,,,,,,,,,,,,5w1[2:1],,,,,,,,,,,,,,,,37,,,,3,,,,3,,,,3,,,,26,,,,6,,,,6,,,,6,,,,
4-2[8:1],,,,6,,5,,4-6[8:1],,,,1-5[8:1],,,,7-3[8:1],,,,3,,2,,1-4[8:1]/4-7[8:1],,,,,,,,8,,8,,2,,2,,6,,6,,4,,4,,5,3,5,3,4,2,4,2,7,3,7,4,7,5,7,6,7h[4:1],,,,4,,3,,15,,,,75,,,,42,,,,5pp5[4:1],,6,,4,,,,2bqq7[8:3],,,,27,,,,,,,,,,6-3[8:1],,2qq7[8:3]*qq7[8:3],,6,,2b/Cf,,,,B5/B4,,,,,,6-3[8:1],,2qq7b[8:3],,6,,2b/Cf,,,,B5/B4,,,,,,6-3[8:1],,2qq7b[8:3],,6,,2b/Cf,,,,B5/B4,,,,,,15,26,3^6[8:1]/7pp2b[8:3],,,,7b/Cf/B2/B7/3b,,,,,,,,,,3-6[8:1],,7pp2b[8:3],,3,,7b^4[8:1]/Cf/B7/B2,,,,,,,,,,3-6[8:1],,7pp2b[8:3],,3,,7b^4[8:1]/Cf/B7/B2,,,,,,,,,,3-6[8:1],,7pp2b[8:3],,3,,7b^4[8:1]/Cf/B7/B2,,,,,,,,,,1,8,5-2[8:1]/7-4[8:1],,,,5^8[8:1]/7,,,,3/5-2[8:1],,,,5-8[8:1]/7,,6,,5-2-5[8:3]/3,,4,,5/7-4[8:1],,,,7,,,,8,,1,,4-7[8:1]/2-5[8:1],,,,4^1[8:1]/2,,,,6/4-7[8:1],,,,4-1[8:1]/2,,3,,4-7[8:1]/6,,5,,24,,,,3b-5-3-5b[8:2],,3,,6,,6,,6h[4:1],,,,3,,24,,5,,46,,3,7,3,7,3,7,E5f/A4/D5/A5/B4/B5,,
,
