&title=Cross†Over
&artist=Hyun feat.LyuU
&first=0
&des=Sau†Rb
&lv_5=14
&inote_5=(200)
{2},
{1}1<4[2:3]*<4[2:3]/5h[2:3],,1-7[4:1]/8-4[4:1],
{4}1>1[2:1]/8<8[2:1],,,,1h[4:1]/8-5-2[1:1],,,,Ch[4:1],,,,3h[4:1]/6-2<3[2:1],,,,
{16}8x-5q2[4:1],8x,8x,8x,8x,,,,Ch[4:1],,,,B8,B7,B6,B5,
{8}1xh[1:1],,,,8,7,6,,5h[1:1],,,,1,2,3,,4h[2:1],,,,5,6,7,,7bh[2:1]/5>1[2:1],,,,,,,,
{8}8xh[1:1],,,,1,2,3,,4h[1:1],,,,8,7,6,,5h[2:1],,,,4,3,2,,2bh[2:1]/4<8[2:1],,,,,,,,
{16}1x,1x,1x,1x,1hx[4:1],,,,
{8}8bx,7,6-2[8:1],,62,,,,
{8}36,47,5>2[8:1]/8<5[8:1],,,,,,25,16,7-3[8:1]/8-4[8:1],,7b/8b>8[2:1],,,,,,,,
{8}1b/8b,,{16}3,4,,,6,5,,,2,7,,,1b/8b,,,,{16}7,5,,,2,4,,,6,3,,,
{16}2/6h[2:1],,,,,,,,4,3,2,1,8,7,6,5,
{16}8,7,6,5,7,6,5,4,6,5,4,3,5,4,3,2,
{1}1>8[1:2]/4,
{1}B2/B3,{8}B4/B5,,,B6/B7,,,Ch[2:1],,,,,,,,
{8}1,2,3h[2:1]/5-1[4:1],,,,,,2h[8:1],3h[8:1],4-8[4:1],,,,,,3,4,5h[3:1],,,6h[3:1],,,7h[4:4],,,,,,,,2,3,Cf/4>5[1:1],,,,,,,,
{8}2h[2:1],,,,,,,,5-2[3:1],,,2-7[3:1],,,7-4[3:1],,,,,,,,7,6,5h[2:1],,,,,,4,3,2-7[3:1],,,7-4[3:1],,,4-1[3:1],,,,,,Ch[2:1],,,,B2/B3/B6/B7,,,,
{16}4,5,4,5,3,6,3,6,2h[2:1]/Cf,,,,,,,,
{8},,2-6[8:1]/6,37,26,,,8qq4[3:1],,,C,,2h[4:1],,,3h[4:1],,,4h[4:1]/Cf,,
{16}7,6,5,4,3,2,1,,,,,,{8}2,3,4h[2:1]/5h[2:1],,,,,,36,1,2-5[3:1]/7,,,5-8[3:1],,,8pp4[2:1],,,,,,,,C,,{16}1,2,3,4,2,3,4,5,3,4,5,6,4,5,6,7,2q5[4:1]/8,,,,,,,,,,,,2/7,,27,,27,,,,,,6h[3:1],,,,,,4-8[8:1],,4,,45,,,,,,2h[3:1],,,,,,6h[4:1],,,,2,3,4,5,6,7,8,1,26,,,,1-5[2:1],,1,,1h[2:1],,,,,,,,,,,,1-5[8:1]/8-4[8:1],,18,,1b>8[1:2]/8b,C,,,,,,,,,,,,,,,
{2}2h[4:1],Ch[1:1],,,
{16}1b,2,3,4,5,,7b,6,5,4,3,2,5x/1bx,8,7,6,1bx/5x,8,7,6,5,4,3bx/7x,2,1,8,7,6,5x/1bx,8,7,6,5bx/1x,4,3,2,1,8,7x/3bx,2,1,8,7,6,5bx/1bx,48,37,26,1b-3-5[4:1]/5b-7-1[4:1],,,,,,,,,,,,,,,,
{16}8b,7,6,5,4,,2b,3,4,5,6,7,4x/8bx,1,2,3,8bx/4x,1,2,3,4,5,6bx/2x,7,8,1,2,3,4x/8bx,1,2,3,4bx/8x,5,6,7,8,1,2x/6bx,7,8,1,2,3,4bx/8bx,51,62,73,8b-6-4[4:1]/4b,,,,4-2-8[4:1],,,,8<4[4:1],,,,,,,,
{16}1b,8,7,6,5,,8b,7,6,5,4,3,2bx/6,1,8,7,6x/2bx,1,8,7,6,5,4bx/8x,3,2,1,8,7,6x/2bx,1,8,7,6bx/2x,5,4,3,2,1,8x/4bx,3,2,1,8,7,6x/2bx,1,8,7,6b/2b-6[4:1],,,,,,,,,,,,
{16}1x,2,3,4,7x,6,5,4,3,2,1bx/5,8,7,6,5,4,8bx,7,6,5,1bx,8,7,6,5,4,2b,1,8,7,6,5,3b,2,1,8,7bw3[2:1]/3b,,,,,,,,
{4},,Ch[1:1],B2/B3,B6/B7,,
{32}E1,E2,E3,E4,E5,E6,E7,E8,C/E1,,,,,,,,
{8}5xh[2:1]/4x,3,2-6[8:1],,2b,,,,5h[2:1]/3,2,1-6[8:1],,1b,,,,5h[2:1]/2,1,8,,7bh[4:1],,{16}5,7,5,,8,,1,,,,,,Cf/E1/B1/B8/E2/E8/E5,,,,,,,,
{8}4xh[2:1]/5x,6,7-3[8:1],,7b,,,,4h[2:1]/6,7,8-3[8:1],,8b,,,,4h[2:1]/7,8,1,,2bh[4:1],,{16}4,2,4,,1,,8,,,,,,{32}1,2,3,4,5,6,7,8,1b/5b,,,,,,,,
{8}2-4[8:1]/8,7,2-6[8:1]/6,,2b/7,,,,7-5[8:1]/1,2,7-3[8:1]/3,,7b/2,,,,2/5h[2:1],3,4,,6bh[4:1],,{16}5,6,5,,7,,8,,
{8},,1b/8,1,1/8,1,8/1,1,1/7,1,1b/6b,6,6/5,6,6/5,6,6/4,6,6b/3b,3,3,3,3/5b,3,3/7b,,{16}2b,1,3,8,4,7,5,6,8,7,1,6,2,5,3,4>5[2:1],Cf,,,,,,,,,,,,,,,,
{8}2q5[3:2],,,C,,,5<4[2:1],,C,,4q8[4:1],,,,6h[4:1],,Ch[2:1],,,,,,,,
{8}7p4[3:2],,,C,,,4>5[2:1],,C,,5-3-1[2:1],,,,1-7-5[3:2],,Ch[4:1],,,5-1[2:1],,,3h[4:1],,,,3h[4:1],,4h[4:1],,5h[4:1],,8<5[4:1],,,B6/B7,,,1s5[4:1],,C,,,8h[3:1],,,,,4>8[3:1],,,8-2-4[3:1],,,6h[4:1],,,,Ch[2:1],,,,,,3h[3:1],,,,,,5h[4:1],,4h[4:1],,,,6h[4:1]/3h[4:1],,,,1bh[4:1]/8bh[4:1],,,,2bh[4:1]/7bh[4:1],,,,3bh[4:1]/6bh[4:1],,,,
{16}3x,6x,3x,6x,3x
,,,,3b,4,5,6,7,8,15,2bx/6bx,37,48,,15,2bx-7[8:1]/6bx-3[8:1],,,,2bx/6bx,,,,,,
{16}6h[4:1]/2b,1,8,7,,5,4b/8b,3,2,1,8/4b,3,2,1,8,7,6/2b,5,4,3,2,1,8/4b,37,26,15,4b-6-8[4:1]/8b-2-4[4:1],,,,,,,,,,,,,,,,
{16}6b,5,4,3,2,1,8bx/4bx,73,62,51,,84,7bx-2[8:1]/3bx-6[8:1],,,,7bx/3bx,,,,,,
{16}3h[4:1]/7b,8,1,2,,4,5b/1b,6,7,8,1/5b,6,7,8,1,2,3/7b,4,5,6,7,8,1/5b,62,73,84,5b/1bh[4:3],,,,
{32}5b,4,3,2,,8,7,6,5b,4,3,2,,8,7,6,5b,,,,,,,,
{16}2b,1,8,7,6,5,4bx/8bx,37,26,15,,48,3bx-6[8:1]/7bx-2[8:1],,,,3xb/7bx,,,,,,
{16}7h[4:1]/3b,4,5,6,,8,1b/5b,2,3,4,5/1b,2,3,4,5,6,7/3b,8,1,2,3,4,5/1b,26,37,48,1b/5bh[4:2],,,,,,,,,,,,
{16}7b,6,5,4,8b,7,6,5,4,3,2/6b,5,4,3,2,1,8b/4b,73,26,51,4b/8bh[4:1],3,2,1,,7,6b/2b,,,,,,4h[4:2],,,,5h[4:1],,,,,,,,
{16}1,8,1,8,1,8,1,8,1,2,3,4,2,3,4,5,7,6,5,4,8,7,6,5,4q6[1:1]/8q2[1:1],
