&title=Mystery × Chemistry
&artist=タカハシヒビキ (F.M.F) feat. 曼城茶座 & 爱丽速子 (CV.小倉 唯 & 上坂すみれ)
&first=0.59
&des=Kafey as「おしどり」
&lv_5=13+
&inote_5=(132)
{4}
,,5-7v1-3[4:2]/3-1v7-5[4:2],,,,
{16}
4h[16:5]/6,,,,,5h[16:3],,3h[16:5],,,4,,6h[8:1],,5,,4/3,,2<4[4:2],,
{8}
3,3h[4:2],,,,,6/4,,3,
{16}
4,5,3,4,2,,6,5,7,,
{8}
3h[8:1]/5,,6h[8:1]/4,,2h[8:1]/4,,7h[8:1]/5,,1/3h[8:1],,8/6h[8:1],,4/2h[8:1],5,7h[8:1]/5,4,
{16}
5x/6x,7x,,,4x/3x,2x,,,8,1,2,3,
{32}
4xV62-8b[8:5],5x,6x,7x,8x,1x,2x,3x,
{8}
4x-8b[8:3],,4x,,,,4bx,,
{8}
E5,2,E7,4,B3,5,B6,4,E4,5p8[8:1],E6,,,7,1s5[8:1],5,E7,,E3,5,B6,4,B3,5,E6,4<1[32:5],E4,1,,5,C,4,
{16}
2,1,,7h[16:3]/3,,,4,,
{8}
3/5,6,7h[8:1]/8,5,5/6h[8:1],2,4/5h[8:1],1x,8x/7hx[8:1],5x,1x/2hx[8:1],
{16}
4x,,7/1bhx[16:3],,,4,
{8}
,6/4,7hx[8:1]/2,5h[8:1],8,4,7hx[8:1]/5,
{16}
3,3,
{8}
4/3hx[8:1],6,4hx[8:1]/5,7,1bx/5,,6bh[8:3]/5,,2,4,7,4h[4:1]/5,7,5,
{16}
4/5,,3,7,,6,2,,7,6,5/4,,3,2,
{8}
1/8,2bh[4:1],,
{16}
6,,4,5,2,,3/6,,5,4,6,,2/7,,3,4,2,,6,5,7qq4[4:1]*qq4[4:1],,3h[4:1]/8,,,,,,
{12}
1bs5[8:1]*s5[8:1],1,1,1/8,,,8bz4[8:1]*z4[8:1],8,8,1/8,,,1b,,7,1/8<4[8:1]*<4[8:1],,2,1/8b,,3,3x-8-4[32:7]*-8-4[32:7],,2,7x,,6,6-1-5[32:7]*-1-5[32:7],,7,2x,,3,2,,6,
{4}
7bx-3[32:3]*-3[32:3],4bxz8[4:1]*z8[4:1],1bx,,5>8[8:5],6,5,
{8}
4,4,4<1[8:5]*<1[8:5],,3,,4,,5xp4[8:5]*p4[8:5],5x,5,,7,,1,,5s1[4:2],4z8[8:3],5/4,,,,,2x/7x,3/6,5/4>1[32:3]*>1[32:3],,5-2[32:3]*-2[32:3],6,7,6V84[16:3]*-1[32:3],5,,,,1<6[32:3]/5,2,3,4x-8[32:3],2x-5[32:3],,,7h[8:1],5h[8:1],3h[8:1],1h[8:1],
{16}
8,7,6,5,
{32}
2x,3x,4x,5x,6x,7x,8x,1x,,,,,
{16}
2,8,4,6,3,7,
{8}
5w1b[16:1],,
{384}
5bx,Cf,,,,,,,,,,,,,,,,,,,,,,,,,,,,,,,,,,,,,,,,,,,,,,,
{8}
,1>4[32:3]/7,6,5pp7[8:1]/1,6,
{16}
5x>8[32:5]/6,,,6,5x,,
{8}
6,6pp5[32:7],2b>5[32:3],6,2,,7xp5[32:7]/4x,1x>5[32:3]/2x,7x,1bx,,4/3-7[32:3]*-8[32:3],5/2,3,,
{16}
6/5,,7/4>8[8:1]*>8[8:1],s,6v7-4[16:3]*v7-4[16:3],,4b,,6,,2x,,1xv3-8[16:3],,,5hx[8:1],,,B6/B5/E6f,,,,7pp2[8:3]*pp2[8:3]/4,,6/5,,7b,,3,3,,4hx[16:5],,,
{24}
5x,6x,7x,
{16}
8x-4[32:3],,1/2,,8/3,,1b,,
{8}
3/5,2/4,6<1[32:3]/5,1/2,
{32}
6x/2bx-6[32:3]*-6[32:3],3x,4x,5x,,,,,3x>8[32:3],,,,,,,,3x/7bx-3[32:3]*-3[32:3],6x,5x,4x,,,,,6,,,,8x,,,,
{12}
1/5,1/5,1h[24:5]/5h[24:5],
{8}
,,8V63[8:1]*V63[8:1]`4V27[8:1],2/6,
{4}
8/4,Ch[4:4],,,,,,
{12}
2,4,3,7,5,6h[12:1],
{16}
3,4-1-7-4[16:15]*-1-7-4[16:15],
{8}
5,,,5x,,6h[8:1],,5h[8:1],,,,1h[8:1]/2V46-8[8:5],2h[8:3],,,,,,4,3x-5-8-3[8:5]*-5-8-3[8:5],,2h[8:1],,4h[8:1],,,4h[4:1],5xs1[4:1],,,,,
{16}
3,4,3,,6,5,6,,5/7,5/7,,,3/6,,2/4,2/4,,,5/6,,4/8,4/8,,,3/4,,1/5,1/5,,,8hx[16:1]/7hx[16:1],,1h[16:1]/6h[16:1],,2h[16:1]/5h[16:1],,3h[16:1]/4h[16:1],,2,1,3,8,4,7,5h[8:1],,
{24}
8,7,6,5,4,3,2,
{16}
1,8,
{12}
7,6,5,4,
{8}
3b,,4-2v8-6[4:2]/6-8v2-4[4:2],,,,,,,
{16}
5,,7x>5qq6[4:3]/3hx[8:7],,
{8}
,,,,,,,,4<2[8:3],3,3h[8:3],,,,4,6h[16:3],
{16}
1,2,
{8}
3pp4>8[8:5]*pp4>8[8:5],,B4/E5,,B8/E1,,7h[4:1],,5,6h[4:1],,4,5h[4:1],,2h[4:1],
{16}
,,6,,4,5,
{8}
3h[4:1],,7h[8:1],,
{16}
2h/5h,1h,,,7h/4h,8h,,,
{12}
2h,4h,3h,7h,5h,6h,
{8}
,2h[4:1]/7h[4:1],,,3/6,5/4,3/6,1/8,
{4}
4x-1[8:5],A8,A7,A6,5-8[8:5]*-8[8:5],A4/D4,A3/D3,A2/D2,1p8<1[4:5]*p8<1[4:5],E2,E3,E4,E6,E7,
{8}
E8,7x/2x,6/3,4/5-1[32:3]*-1[32:3],3,4x-7[32:3]*-7[32:3],3,2,3-7[32:3]*-7[32:3],2-5[32:3]*-5[32:3],3x,2x,1,8x>3[32:3]/4x,7,6/8,5x-1[32:3],7x-4[32:3],5x,7x,
{16}
2,2,3,3,4,4,5,5,6,6,7,7,8,8,1,1,2h[16:1],,
{32}
1x,8x,7x,6x,1x,2x,3x,4x,8xV26-4b[4:1],7x,6x,5x,4x,,,,
{8}
8bx,,,
{16}
6hbx[4:2]/A2f/B2,,,,,,,,,,3hbx[8:1]/A7f/B7/E7,,,5hbx[8:1]/A1f/B1/E2/D2,
,,3,6,4,5,2,7,4,5,
{32}
1x-5b[32:3],2x,3x,4x,5x,6x,7x,8x,
{384}
1bx<6[32:3]*>4[32:3],Cf,,,,,,,,,,,,,,,,,,,,,,,,,,,,,,,,,,,,,,,,,,,,,,,
{8}
,1bx,,5/6,4/7,
{16}
2,5,,7,4,,2/5<1[8:1]*<1[8:1],,4/3v2-5[16:3]*v2-5[16:3],,5b,,3,,7x,,8xv6-1[16:3],,,4hx[8:1],,,B3/B4/E4f,,,,2qq7[8:3]*qq7[8:3]/5,,3/4,,2b/5,,6,6,,5hx[16:5],,,
{24}
4x,3x,2x,
{16}
1x-5[32:3],,8/7,,1/6,,8b,,4/6h[16:1],4,,3h[16:1]/7,7,,8/4,,
{32}
3bx/7bx-3b[32:3],6/2,5/1,4/8,,,,,6b,,,,,,,,6bx/2bx-6b[32:3],3/7,4/8,5/1,,,,,3,,,,1x,,,,
{12}
8/4,1/5,8h[24:5]/4h[24:5],
{8}
,,1>5[8:1]/5<1[8:1],2/6,1p5b[32:3]/5p1[32:3],,
{384}
1/5b,Cf,,,,,,,,,,,,,,,,,,,,,,,,,,,,,,,,,,,,,,,,,,,,,
{16}
,,6pp4b[4:1]/2,,3h[8:1],,6,,1x,2,3V51b[16:3],,6x,7,8/3b,,7,7,,6,2/6,,5,1,,8/4,8v5b[32:3]/4v1[32:3],,2/6,,
{384}
4b/8,Cf,,,,,,,,,,,,,,,,,,,,,,,,,,,,,,,,,,,,,,,,,,,,,,,
{16}
,,3qq5b[4:1]/7,,6h[8:1],,3,,8x,7,6V48b[16:3],,3x,2,1/6b,,2,2,,3,7/3,,8,2,6,4,7-4b[32:3],3,8,,
{8}
2-5b[32:3]/7,1,2/6-2b[32:3],7,6/4-8b[32:3],5,4/7-3b[32:3],6,7/3pp8[4:1]*pp7b[4:1],1b,A3/D3/A2f,,,6,6/5,8/4,
{16}
2b,5,3,4,1,5,3,3,7b,4,6,5,8,5,7,,
{12}
1/5,3/4,1h[24:5]/5h[24:5],
{8}
,,8/4z8[8:1]*z8[8:1],2/6,4b,,
{16}
7,,6,,5,5,,4,7,,E5,8,E4,7,E3,6x,,,3,,2,2,,1,3,,E7/A7,4,E6/A6,3,E5/A5,1x,,,,,
E
