&title=旮旯给木的Track maker
&artist=Ghost/Hanser
&first=3.214
&des=JMComic
&clock_count=4
&des_5=JMComic
&lv_5=13+
&inote_5=(140.81)
{8}1b/2,3,4/5,6,7/8,6,4/5h[8:1],,,
{16}8,1,2,,3,,4,,,,8-3[8:1],7,6,,
{8}8-5[8:1],7,8-3[8:1],1,8-5[8:1],7,8,1,,
{16}8,7,6,,54,,27,,,,
{8}4b/6b,,35,2,46,7,34,1,56,8,35,1,46,8,34,18,56,18,35,78,46,12,45,78,35,17,2^7[8:1]/6^3[8:1],3^6[8:1]/7^2[8:1],,,,26,2-5[16:1]/6V42[4:1],,2bV86[6:1]/6b,,
{4}5V31[4:1],1V35[4:1],5p3[4:1],C1,,1>6[4:1]/6v3[16:1],6bV82[4:1]/1,2V86[4:1],
6>8[4:1],8V24[4:1],4V28[4:1],8p6[4:1],,2b,
{16}4,4,4,,35,,8,35,,5,5,5,46,,1,46,,,
1,2,34,,56,56,,34,34,,3^1[16:1]/6^8[16:1],,,,36,,,,1,8,2,7,3,6,4,5,3,4,2,5,1,6,8,7,
{32}1,2,3,4,5,6,7,8,16,5,4,3,2,1,8,7,2-7[16:1]/6-3[16:1],,,,,,,,26,,,,,,,,
{16}1,2,,3,4,5,6,,7,7,,6,5,,4,,8,7,,6,6,5,5,4,4,3,,2,1h[8:1],,,,
{8}35,35,2h[4:1]/6h[2:1],,
{48}E2,B1,B8,E8,,,,,,,,E6,B5,B4,E4,,,,,,,,,,
{16}1,8,2,7,1,,8,,45,4h[16:1]/5h[16:1],
{48},,,,E4/E6,B3/B6,B2/B7,E2/E8,,,,,
{16},,12,,2,,23,,3,,4,4,5,5,6,,6,,87,,7,,76,,6,,5,5,4,4,3,,3,,8,1,2,3,4,,5>1[8:1],,1x,8x,7x,6x,5x,,,,1-4[8:1]/5-8[8:1],26,37,,,,,,1-5[8:1]/5-1[8:1],48,37,26,15,,,,
{16}8,8,7,7,6,6,5,,5,,5,,4/E8,,4,,4,4,3,3,2,,2,,1,,1,,8/E4,,8,,6,5,6,,3,4,3,,2/E8/B8,,2,,1/E6/B5,,1,,7,7,2,2,6,6,3,,45,36,,36,45,,27,,5,5,6,6,7,7,8,,8,,8,,1/E6,,1,,1,1,2,2,3,,3,,4,,4,,5/E2,,5,,4,6,4,6,4,6,4,6,3,6,2,6,1,6,8,6,5,5,6,6,3,3,6,6,
{32}1,2,3,4,8,7,6,5,2,3,4,5,7,6,5,4/1bw5[50#32:1],,,,,,,,
{4},,
{8},,35,1,46,8,34,1,56,8,28,4,17,5,12,4,78,5,18,27,36,45,36,27,
{16}1-4[8:1]/8-5[8:1],27,36,,1h[16:1]/8h[16:1],,
{8},4x-1[8:1]/5x-8[8:1],36,45,,1-5[8:1],,1/7-4[8:1],8,3-6[8:1]/7,2,3/7-3[8:1],8,1-4[8:1]/7,2,1/6-4[8:1],7,3-7[8:1]/6,2,3/5-8[8:1],6,2-6[8:1]/5,1,2/7-3[8:1],8,1-5[8:1]/7,2,1/8-4[8:1],7,1-3[8:1],1-7[8:1],1-4[8:1],1-6[8:1],1-5[8:1],1,1,,34,2,
{8}56,7,56,4,56,8,56,2,34,5,34,6,34,1,34,78,56,12,34,78,45,36,
{16}1-4[8:1]/8-5[8:1],27,36,,18,,,,
{8}2^7[8:1]/6^3[8:1],3^6[8:1]/7^2[8:1],,,,,3b/5,2,46,7,34,1,56,8,3/5b,1,46,8,34,18,56,18,3b/5,78,4/6b,12,4b/5,78,3/5b,17,3b/4b,5b/6b,2b/4b,5b/7b,1b/3b,6b/8b,2b/7b,,
2x-4[8:1],1x-5[8:1],2-6[8:1],1-7[8:1],2-5[8:1],1-6[8:1],2,1,8x-2[8:1],7x-3[8:1],8-4[8:1],7-5[8:1],8-3[8:1],7-4[8:1],8,7,4x-2[8:1],5x-1[8:1],4-8[8:1],5-7[8:1],4-1[8:1],5-8[8:1],4,5,1x-3[8:1],8x-4[8:1],1-5[8:1],8-6[8:1],1-4[8:1],8-5[8:1],1,8,2x-5[8:1],6x-1[8:1],2-7[8:1],6-3[8:1],2-5[8:1],6-1[8:1],2,6,
2x^5[8:1],6x^1[8:1],2v7[8:1],6v3[8:1],2>1[4:1],,2,,
6x-8[8:1],1,6-1[8:1],2,6-2[8:1],3,6x-3[8:1]*-4[8:1],6,6x-2[8:1],6,6x-1[8:1],6,6x-8[8:1],6x,6x,6x,
{8}34,1,46,8^5[8:1],8^3[8:1],8x-4[8:1],8x,8x,3,8,53,1^4[8:1],1^6[8:1],1x-5[8:1],1x,1x,8^3[8:1],8,8^5[8:1],8,8x-4[8:1],8x,8,8x,1^6[8:1],1,1^4[8:1],1,1x-5[8:1],1x,1,1x,18,1,12,2,23,3,34,4,45,5,56,6,67,7,78,8,
{16}1,1,2,2,3,3,4,4,5,5,6,6,7,7,8,8,
{32}1,2,3,4,5,6,7,8,26,5,4,3,2,1,8,7,36,4,5,6,7,8,1,2,3-6[16:1]/7-2[16:1],,,,,,,3b/7b/E3/E7/C1f,
E
