&title=A Horny Money World ~伝説の夜~
&artist=宝鐘マリン
&first=-0.07
&des=FAN_V9
&des_5=FAN_V9
&lv_5=13+ ||船长奶子好大
&inote_5=(145){4},{12},,,E3f,B3f,B4f,B5f,B6f,E7f,
{4}Cf,4xh[4:1]/5xh[4:1],{12},,,2,5,3,
{6}4,4x,{3}4w8[6:7],4bx,
{1},{4},{16},,{8}5bV74-1-3[8:5],
,,,,,,,7bx-5v4-2b[8:5],
,,,,,,,1x-4[2:1]/8xqq5[2:1],
{4},,,{16},{64},,,2x,
,,,,,,,,,,,,,,,2xw6b[4:1],,,,,,,,,,,,,,,,2bx,{4},,{8}8xv5[8:1]/2xv5[8:1],
,8/2,,8xV64[8:1],
4xv7[32:3],8,,2h[8:1],,5h[8:1],,1,
{2}8bh[8:1]/1-4[8:1]*-6[8:1],{8}5,8,7/1,4>2[8:1]*-7[8:1],
6,4x,,1h[16:1]/5h[16:1],,2h[16:1]/6h[16:1],,3-5[8:1]/7-1[8:1],
,7b/3b,,2<6[8:5]/6>2[8:5],,,,,,,,3<7[8:5]/7>3[8:5],
,,,,,,,8<8b[8:5],
,,,,,,,5pp8[8:5]/1pp4[8:5],
,,,,,,,1b,
{16},,3,5,{4}4w8[8:1],
{8},,,2b,{16},,2,8,{4}1s5[8:1]*v4[8:1],
{8},,,3b,{16},,1,7,{4}8-4[8:1],
{8},,,1h[8:1],{4}3h[4:1],4pp4[4:1]*qq4[4:1],
{8},,,2b/6b,,4-1[8:1],,4>8[4:1]`4?<8[4:1],
,4,,,,4-1[8:1],,4<8[16:3]*>8[16:3],
,4x,,,,4-1[8:1],,4<8b[8:1]*>8b[8:1],
,4bx,,2x,6x,1x,7x,8x>2v5[8:1],
,,,2b/6b,,5-2[8:1],,1,
1,1<6[8:1],{48},,,,,,,,,,,,,,,,,5x-1[8:1],,,,,,,,,,,,2x,,,,,,2x,
,,,,,2x>5[8:1],{4},{16},,,{24},{48}6bx-1[8:1],,,,,,,,,,,,3bx,,,,,,3bx,
,,,,,3bx-8[4:1],,,,,,,,,,,,3h[4:1],{4},,{8}8h[24:5]/7h[24:5],
{48},,,,,6bx/1bx,2bx/5bx,3bx/4bx,,,,,,,,,,,{24}6,,6,,5,,7,,7,,5,,{8}6x-8[8:1],
,6x/5,{24},,,3,,3,,4,,2,,2,,4,,{8}3x-1[8:1],
,3x/4,,6,6,7/5,7/5,8/4,
8/4,1/3,1/3,2<5[16:7],,3x,,4w8b[8:1],
,4b,,2h[16:3],{16},4,{8}3,{4}5<8[8:1],
{8}3,2h[4:1],,7h[16:3],{16},5,{8}6,{4}4>1[8:1],
{8}4,5,6,7qq7[4:1],,1pp1[4:1],,1,
8,7,6,5-8[8:1],5,4-1[8:1],,8<5[8:1]*p4[8:1],
,8,,2,{4}3/5<8[8:1],4qq1[16:5],
{8}8,8,,7,{4}6/4>1[8:1],5pp8[16:5],
{8}1,1,{24},,,E2,,E3,,E4,,E8,,E7,,E6,,{8}3,
{24}5,4,6,5,,,{8}7x/4x,5b/6-8[8:1],,2-4[8:1],,5w1b[8:1],
,5x,,6h[8:1]/2h[8:1],,3h[8:1]/7h[8:1],,5<8[8:1]/1>4[8:1],
,5/1,,7-4[8:1]*-3[8:1],,7,,2h[4:1]/5<8[8:1],
,5,{32},,,,1,2,3,4,5,6,7,8,{8}1,2x,6<1[8:1]/2>5[8:1],
,2/6,,8z4[4:1],A4,A3,A2,1-4[8:1]*-6[8:1],
,1,,C/2p3[4:1],,5,,4<7[8:1],
,3,,4x,3x,2x,1x,8xw4[8:1],
,,,3>6[4:1],,6<3[4:1],,E7,
E6,E5,,4<8[4:1],,8,,1w5[8:1],
,,,3/7,{16},6,{8}5,7/4,5/6<8[8:1],
,6/5q1[8:1],,5/3<5[8:1],,3/2q6[8:1],,2/1<6[8:1],
,1b/3b,,2/6,{16},3,{8}4,2/5,4/3>1[8:1],
5,6<1[8:1],,3>8[8:1],,5q2[8:1],,4-1[8:1],
,Cf,,8h[8:1]/4h[8:1],{16},,6,5,6,5,{8}7<4[8:1],
4,3,,2h[8:1]/5h[8:1],,3h[8:1]/6h[8:1],,7<4[8:1]/4-1[8:1],
,7/4-8[8:1],,2/4,3,4h[4:1],{16},,6,5,
{8}7,8/5-1[8:1],,7/5,6,5h[4:1],{16},,3,4,
{8}2,1/4,,4/5,6,7/4,8,{16}1,3,
8,4,{8}7-5[8:1],5,4-8[8:1],,3,,2-6[8:1],
,2b/8b,,7/5,6,5h[4:1],{16},,3,4,
{8}2,1/4-8[8:1],,2/4,3,4h[4:1],{16},,6,5,
{8}7,8/5,,5/4,3,2/5,1,{16}8,6,
1,5,{8}2-4[8:1],4,5-1[8:1],,6,,1h[24:5]/2h[24:5],
{48},,,,,3bx/8bx,7bx/4bx,6bx/5bx,,,,,,,,,,,{24}4,1,4,1,4,1,4,1,4,{8}1,5-1[8:1]/2-5[8:1],
3/6,2/5,,8b<5[8:1],{16},5,{8}8,4,3>8[8:1],
4,4,,5bx<8[8:1],{16},8,{8}5,1,2>5[8:1],
1,1,,4x/8x,{4}7-5[8:1]/3-1[8:1],3/7-3[8:1],
{8}1,1,2,{16}3x,4x,2x,5x,{8}3-8[8:1],4b,3b/5<8[8:1],
5,2,,4>1[8:1],{4}4,7<4[8:1],
{8}8,8,1,2>5[8:1],{4}2,8<5[8:1],
{8}1,2,3,{32}4,5,6,7,8,1,2,3,{8}4,7,8-4[8:1],
,8/3-8[8:1],,5<8[8:1],,2>5[8:1],,1w5b[8:1],
,1b,{16},,6,5,7,5,6,5,{8}6,7-4[8:1]/4-8[8:1],
,7/4,{16},,3,4,2,4,{8}3,4,4-8[8:1]/2-4[8:1],
,2/4,,7>2[4:1],7,2<5[16:3],,4-1[8:1]*-7[8:1],
,4,,3,3>8[8:1],5,3/6,7-4[8:1],
,1/7,,C/2p3[4:1],,5,,4<7[8:1],
,3,,E3/A3/A2,,B2/B3/E2/E4,,Ch[4:1],
1,2,,3>6[4:1],,6<3[4:1],,E7,
E6,E5,,4<8[4:1],,8,,1w5[8:1],
,,,3/7,{16},6,{8}5,7/4,5/6<8[8:1],
,6/5q1[8:1],,5/3<5[8:1],,3/2q6[8:1],,2/1<6[8:1],
,1b/3b,,2/4,{16},6,{8}5,7/4,8<5[8:1],
2,1>4[8:1],,1<6[8:1],,1-5[8:1],,1w5[8:1],
,1b,,3b/7b,{16},,6,5,6,5,{8}7-4[8:1],
4,3-8[8:1],,5<8[8:1],5,1,2,7h[4:1],
B5/B4,A5/A4/E5,,3/4,{16}6,5,{8}7/4,8,1<4[4:1],
3,4,,3-5[8:1],,7-1[8:1],,4w8[8:1],
,C,,2/6,{16},3,{8}4,{4}2>3v6[4:1],
{8}5,6,{16},,,,,6,{8}5,{4}7<6p3[4:1],
{8}4,3,2,1h[16:3],{16},6,{8}5,{4}7<6v3[4:1],
{8}4,3,2,1-5[8:1],,2-4[8:1],,6-8[8:1],
,6/5,,3h[16:3],{16},6,{8}5,{4}7p4[4:1],
{8}4,3,{16},,,,,3,{8}4,{4}2q5[4:1],
{8}5,6,7,8<5[8:1],{16},5,{8}8,{4}4-7[8:1],
{8}3,3,,,{2}1q5[1:1]/8p4[1:1],
{16},,,,,,,,,,,,,,,,,C,
E
