&title=有明/Ariake
&artist=SIINCA
&first=0
&des=tkmr
&lv_6=14+
&inote_6=(190)
{1}
,
{4}
2-7[4:3]/3,,,,
6-3[4:3]
,,,,
2-7<5[1:1],,3h[2:1],,
,,4/6,,
7-2[4:3]/6,,,,
3-6[4:3],,,,
7-2>5[4:5]*-4>1[4:5],,,,
,,,6/8,
{8}
7,6,5,4,B7,B6,B5,B4,
6,5,4,3,B6,B5,B4,B3,
5,4,3,2,B5,B4,B3,B2,
1-5[2:1],,,,1h[4:1],,,,
2,3,4,5,E3,E4,E5,E6,
3,4,5,6,E4,E5,E6,E7,
4,5,6,7,E5,E6,E7,E8,
,5,4,3,6,3,4,5,
{1}
2b>5-1[4:13]/7b<4z8[4:13],
,
,
,
{8}
7h[2:3]/E7,,,B5,,,B3,,
,E2,,,A8,,,,
1h[2:3]/E2,,,B3,,,B5,,,E7,,,8-4[8:1],,,,
3h[4:1],4,5,3h[4:1],4,5,3h[4:1],4,
5,3h[4:1],4,5,3h[4:1],4,5,4,
6h[4:1],5,4,6h[4:1],5,4,6h[4:1],5,
4,6h[4:1],5,4,7h[4:1],6,5,4,
3h[4:1],4,5,3h[4:1],4,5,3h[4:1],4,
5,3h[4:1],4,5,3v5[8:1],4,5,,
6h[4:1],5,4,6h[4:1],5,4,6h[4:1],5,
4,6h[4:1],5,4,7h[4:1],6,5,4,
{16}
3>8[16:1],,,,4x/3x,,,5<8[16:1],,,5x/4x,,,2-6[16:1],,,
1b>4[16:1],,,,1x/8x,,,7<4[16:1],,,7x/8x,,1,1-5[16:1],,,
6b<1[16:1],,,,5x/6x,,,4>1[16:1],,,4x/5x,,,7,,,
2/6,,3,4,1,,6,5,8,5,6,,4,4,5,,
{8}
3/4,2,1/2h[16:1],2h[16:1],8/2h[16:1],2h[16:1],7/2h[16:1],2h[16:1],
2/6h[16:1],6h[16:1],3/6h[16:1],6h[16:1],4/6h[16:1],6h[16:1],5/6h[16:1],6h[16:1],
4/7,2/5,3/8,1/6,
{16}
2,7,4,5,1<2[8:7],8,3,6,
,,,,,,,,,,,6x,6x,,7x,,
{32}
1b/8b,7/2,3/6,,,,,,E5,C,E1,,,,,,
{16}
6,5,5,4,5,5,7,5,
6,3,5,4,8,,1/7,,3,4,4,5,4,4,2,4,
3,6,4,5,1,,2/8,,7,5,6,1,3,2,8,6,
7,2,4,3,8-5[8:1],,2/6,,8,,
{48}
4bx,E4,B3,B2,E2,,
{16}
A7,A6,A5,A4,
{8}
A3f/2bh[2:1],,,6,8xh[8:3],,5,7xh[8:3],
,4,6xh[8:3],,3,5xh[8:3],,3,
7xh[2:1],,5,3,1xh[8:3],,4,2xh[8:3],
,5,3xh[4:1],,6,6,
{24}
6,4,6,4,6,4,
{8}
3b/7b,,8<5[8:1],7,1-5[8:1],2,3,4-8[8:1],
3,2,1p3[4:1],2,3<1[4:1],2,1,,
5b,,4h[8:1]/6,8,3/5h[4:1],1,7,6/4h[4:1],8,2,
{24}
5,4,3,2,1,8,7s3[8:1]/6z2[8:1],,,,,,7/6,,,,,,
{8}
B2/C/B6/A6f,,1>4[8:1],2,8-4[8:1],7,6,5-1[8:1],
6,7,8q6[4:1],7,6>8[4:1],7,8,,
4b,,5h[8:1]/3,1,6/4h[4:1],8,2xh[24:17],6xh[12:7],
,,,,
{24}
5/1,4/8,3/7,2/6,1/5,8/4,3-6[8:1]/7-2[8:1],,,,,,
{8}
7b/3b,,5,4,6h[2:1],5,2,7,
5h[2:1],4,1,6,4h[2:1],3,8,5,
3h[2:1],4,7,2,4h[2:1],5,8,3,
5h[2:1],6,1,4,6h[8:3],7,2,5,
A6,,,,2h[8:3]/8,4,4,4,
7h[8:3]/1,5,5,5,2h[8:3]/8,4,4q5[1:1],4>5[8:7],
{16}
,,,,,,,,,,,,,,,,
,,4,6,3,7,2,8,
{48}
E2,E3,E4,,,,E1,E8,E7,,,,A2,A3,A4,,,,A8,A7,A6,,,,
{16}
1b,,2,4,,4/5,,7,5,,6,5,7,3,5,4,
8,,3,4,2,6,4,5,1,,2/4,,5,4,6,5,
7,8,7,5,,5/4,,2,4,,3,4,2,6,4,5,
1,,6,5,7,3,5,4,7,5,6,4,5,3,4,2,
1b/8b,,6,7/5,,4/5,,3,2/4,,7,8,6,3,2,4,
8,,2,1,3,6,7,5,1,,3/2,,4,4,6,6,
8,2,6,4,,7/3,,6/4,8/2,,1,1,2,8,3,7,
4,6,5,6,3,7,5,7,2,8,5,8,
{32}
1,8,7,6,5,4,3,2,
{8}
1b>1^2^3^4^5^6^7^8^1[4:14]b/5b,,,,,B2/B3/E3,E5/B5/B4,E7/B7/B6,
E1/D1,,E7/D7,,E5/D5,,E3/D3,,
Cf/E1hh[8:3],,,,,B7/B6/E7,E5/B4/B5,E3/B2/B3,
A8/E1/B8,,E3/A2/B2,,A4/B4/E5,,A6/B6/E7,,
1x-6[8:1]/8x,2,3/1,4,5x/6x-3[8:1],7,8/6,1,
3x-8[8:1]/2x,4,5/3,6,7x/8x-5[8:1],1,2/8,3,
4x/6x,2/1,3/8,7/4,3x/5x,8/7,1/6,2/5,
{16}
3x/6x,,7,2,5,4,6,3,1p4[8:1]/8q5[8:1],,,,1/8,,,,
{1}
3b>6[8:13]b/6b<3[8:13]b,
,
{32}
4-8-5-1-4[4:29]b/5,3-7-2-6-3[32:231]b/6,2/7,1/8,,,,,
{4}
,,,
,,,,
,,,,
,,,,
,,,,
,,,,
,,,,
,,,,
{8}
5/6,,4,4,
{32}
8x,E8,E7,,,,,,
{8}
5,4,3/6,6,4,4,
{32}
6x,E7,E8,,,,,,
{8}
1,2,
4/3,,5,5,
{32}
1x,E2,E3,,,,,,4,,,,5,,,,
7/6,,,,7x/6x,E8,E1,,,,,,3/2,,,,3x/2x,E4,E5,,,,,,C/B7,,,,,,,,
{8}
4/3,4,2,,
{64}
3x/1x,B1,B3,E2,E3,,,,
{8}
,8,7,
{8}
5/6,5,7,7,
{64}
6x/8x,B8,B6,E8,E7,,,,
{8}
,1,2,
3<3[8:3]b/7h[2:1],,,,,,4/8,7/3,
{12}
2/6,2,4,3,5,4,6,1,7,2,8,3,
{8}
4/1bv8[2:1],5,5,4,5,5,4,5,
4/2bq7[2:1],5,5,4,5,5,4,5,
4/3b>6[2:1],5,5,4,5,5,4,5,
4/6b<1-4[2:1],5,5,4,4,3,2,1,
5/8bv1[2:1]b,4,4,5,4,4,5,4,
5/7bp2[2:1]b,4,4,5,4,4,5,4,
5/6b<3[2:1]b,4,4,5,4,4,5,4,
A2/A3/E3h[2:1]/5,4,4,5,5,6,7,8,
1b/3b,2,3/5,4,7/5,
{16}
6,8,7,,2/1,,
{8}4/3,5,6/7,8,1/2,3,4/5,6,
7/1,3,2/4,6,7/5,
{16}
8,2,1,,34,,
{8}6/5,8,3/2,5,7/6,4/5,2/3,1/8,
{16}
1b/8b,2,3,4,8b/5x,1,2,3,4x/7b,8,1,2,3x/6b,7,8,1,
5b/2x,6,7,8,4b/1x,5,6,7,8x/3b,4,5,6,7x/2b,3,4,5,
1b/6x,2,3x/7b,8,1x/5b,6,7x/3b,4,1b/5x,2,3x/7b,8,1x/5b,6,7x/3b,4,
1bh[2:1]/5bh[2:1],,,,,,,,,,,,3h[8:1]/7h[8:1],,,
{64}
1,2h[384:1]/8h[384:1],3/7,4h[384:1]/6h[384:1],
{1}
5b^6^7^8^1^2^3^4^5[4:13],
,
,
,
{8}
E7,,,E6,,,E5,,,E4,,,E3,,,,
D3,,,D4,,,D5,,,D6,,,D7,,E1h[4:1]/E5h[4:1]/C,,
{32}
E7/E3,D7/D3,,
E
