&title=girls.exe
&artist=rintaro soma
&first=0.045
&des=87878
&lv_5=14+
&des_5=87878
&inote_5=
(188){4},{16},,,,,,,,,,,,,,,,Ch[16:0],
{48},,,,,,E6,,B5,,B4,,{16}E4,,,,,,,{1}1x>4-7-1[2:7],
E8,
E6,
{16},,,,,,,,,,,,,,8x,7x,
{1}6x>3-8-6[2:7],
E2,
E4,
{4},,,,3,
5,{2}4h[2:1]/B6/B7,
{4}5,4,{2}6h[2:1]/B3/B2,
{4}3,5,{2}4h[2:1]/B6/B7,
{4}5,4,{2}6h[2:1]/B3/B2,
{16}4,5,4,5,4,5,4,5,3,6,3,6,3,6,3,6,
2,7,2,7,2,7,2,7,1,8,1,8,1,8,1,8,
1h,8h,2h,7h,1h,8h,2h,7h,1h,8h,2h,7h,1h,8h,2h,7h,
3h,4h,2h,6h,5h,7h,1h,2h,3h,8h,7h,6h,1h/5h,2h/6h,3h/7h,8h/4h,
{1}1bh/5bh,
{8},,,5h[16:1]/3h[16:1],{16}4,5,6,7,8,1,2,3,
{4}4h[8:1]/C,7/4,{16}6,5,6,4,6,5,{8}6,
{16}3,4,3,4,{8}3,{16}6,5,6,5,{8}6,{16}4h,5h,3h,6h,
{4}C,2/5,{16}3,4,3,5,3,4,{8}3,
{16}6,5,6,7,{8}6,{16}3,4,3,2,{8}3,{4}5w1[16:1],
C,{16}1,8,1,8,{8}1h[8:1],{16}E8/B8,1h[8:1],,B6/E6,{8}1h[8:1],
{4}B4/B5,{16}5,4,5,4,{8}5h[8:1],{16}B4/E4,5h[8:1],,B2/E2,{8}5h[8:1],
{4}B8/B1,{16}2xh,6,4h,8,5xh,1,3h,7x,1h,5x,3h,7,
,E4/B3,,,B1/E2,,,E8/B7,,,{8}E6/B5,{16},E7/E3/D7/D3,,,{8}Cf,
{16}4,5,4,5,{8}4,{16}3/6,2,1,8,7,6,5,4,
{8}3/6,{16}5,4,5,4,{8}5,{16}6/3,7,8,1,2,3,4,5,
{8}3h[16:1]/6h[16:1],7h[16:1]/4h[16:1],5h[16:1]/2h[16:1],6h[16:1]/3h[16:1],7h[16:1]/4h[16:1],5h[16:1]/2h[16:1],6h[16:1]/4h[16:1],5h[16:1]/3h[16:1],
7bh[32:1]/2bh[16:1],{16}1h[32:1],8h[32:1],1h[32:1],8h[32:1],1h[32:1],8h[32:1],1h[32:1],8h[32:1],1h[32:1],8h[32:1],{4}1h,
7h[8:1]/B3/B4/E4f,2h[8:1]/B6/E6f/B5,{12}7h/3h,7h/3h,7h/3h,6-1[8:1]/2-5[8:1],6h/2h,6h/2h,
{4}2bh/6bh,{16}6/3,4,5,4,6,3,5,4,{8}6/3,7/2,
{16}8b/1b,,,6/3,4,5,{8}4,{16}4,3,2,1,4,3,2,1,
8/1,7/2,6/3,5/4,,,,,6/5,7b/4b,,,4/3,2b/5b,,,{8}6h[4:1],
5,4,5h[4:1],4,3,4h[4:1],3,
2,3h[4:1],2,1,8,1,7,2,
3h[4:1],4,5,4h[4:1],5,6,5h[4:1],6,
7,6h[4:1],7,8,1,8,2,7,
2-5[8:1],1,2,7-4[8:1],8,7,3-8[8:1],5,
3,6-1[8:1],4,6,2-6[8:1],7-3[8:1],2,7,
4,5,3,6,{16}4,3,2,1,5,6,7,8,
1h,2h,8h,7h,2h,3h,7h,6h,3h,4h,6h,5h,3h,4h,,,{8}1>4[8:1],
8,7,6<1[8:1],5,4,3<6[8:1],2,
1,8>3[8:1],7,6,4-1[8:1],5-8[8:1],4,5,
2>3-5[8:1],1,8,7>8-2[8:1],6,5,4<5-7[8:1],3,
2,1>2-4[8:1],8,7,6-1[8:1],5-2[8:1],6,5,
8-5[8:1],1,2,3-8[8:1],4,5,6-3[8:1],7,
8,1-6[8:1],2,3,4-1[12:1],5-8[12:1],4,5,
{16}1h,2h,8h,7h,2h,3h,7h,6h,3h,4h,6p3[8:3]*p5[8:3],5h,3h,4h,{8}6h,
,,,,3h,4h,5h,6h,
{16}1bx,2,3,4,1,2,3,4,1x,2,3,4,1,2,3,4,
1bx,8,7,6,1,8,7,6,1x,8,7,6,1,8,7,6,
1bx,2,3,4,1,8,7,6,1x,2,3,4,1,8,7,6,
1bx,8,2,7,1,8,2,7,3x,6,4,5,3,6,4,5,
4bx,3,2,1,5,6,7,8,4x,3,2,1,5,6,7,8,
2bx,3,7,6,2,3,7,6,3x,4,6,5,3,4,6,5,
2bx,3,4,5,7,6,5,4,2x,3,4,5,7,6,5,4,
{4}2bxh[8:3],6bxh[8:1],{8}1b/5b,7b/3b,,6b/2b,
{16}1bx,2,3,4,2,3,4,5,3x,4,5,6,4,5,6,7,
1bx,2,3,4,2,3,4,5,8x,7,6,5,7,6,5,4,
8bx,7,6,5,8/4,7/3,6/2,5/1,4x,3,2,1,8/4,7/3,6/2,5/1,
{24}2x,3,4,6x,5,4,2x,3,4,6x,5,4,{2}Cfh[4:1],
{32}2b/7h[32:3],3,{16}4,{32},,2b/7h[32:3],3,{8}4,{32}2b/7h[32:3],3,{16}4,{4}Cf,{32}7b/2h[32:3],6,{16}5,{32},,7b/2h[32:3],6,
{8}5,{32}7b/2h[32:3],6,{16}5,{4}Cf,{16}1,8,1,8,1,8,1,8,
{32}1b/7h[8:1],2,3,4,,,1b/7h[8:1],2,3,4,,,1b/7h[8:1],2,3,4,,,1b/7h[8:1],2,3,4,,,{4}Cf,
{2}7h[4:1]/3h[4:1],{16}E4,E8,E3,E7,E2,E6,E1,E5,
(141){1}Ch[16:0],
4h[16:1]/5h[16:1],
(211.5)B2h[4:1]/E3h[4:1]/B3h[4:1],
,B2h[4:1]/E3h[4:1]/B3h[4:1],
,B2h[4:1]/E3h[4:1]/B3h[4:1],
,B2h[4:1]/E3h[4:1]/B3h[4:1],
{4},,,,E8/B2h[4:1]/E3h[4:1]/B3h[4:1],
E7,E6,E5,
,,,,E5/B2h[4:1]/E3h[4:1]/B3h[4:1],
E6,E7,E8,
,,,,{1}E3h[16:0]/B3h[16:0]/B2h[16:0],
,4x<4qq5[1:3],
,6xpp5b[1:1],
{4},,1w5b[8:1],1b,
{8}3/8,{16}2,1,2-5[8:1],1,{8}2,2/8-4[8:1],7,1/8,2,
1/6,{16}7,8,7-4[8:1],8,{8}7,7/1-5[8:1],2,8/1,7,
8/3,{16}2,1,2-5[8:1],1,{8}2,2/8-4[8:1],7,1/8,2,
1/6,{16}7,8,7-4[8:1],8,{8}7,7/1-5[8:1],2,8/1,7,
8/3,{16}2,1,3<6[8:1],1,{8}2,3/8-4[8:1],7,8/1,3,
6/2,{16}7,8,6>3[8:1],8,{8}7,6/1-5[8:1],2,8/1,6,
{32}8b/2h[8:1],7,6,5,,,,,1b/7h[8:1],2,3,4,,,,,8b/2h[8:1],7,6,5,4,3,2,1,8,7/1,6/2,5/3,{8}4bh[8:7],
,,,,{2}E7f/B7/B6,
{16}1,2,3,4,1,2,3,4,8,7,6,5,8,7,6,5,
1,2,3,4,5,6,7,8,1/5,4,3,2,1,8,7,6,
1,2,8,7,1,2,8,7,2,3,7,6,2,3,7,6,
3,4,6,5,3,4,6,5,4,3,2,1,8,7,6,5/3h,
B3,,,,,7h,{8}B7,{16},,,1h,{4}B1/Ch[1:1],
{16},,,,,,,,,,,,,,,,3,
4,6,5,3,4,6,5,2,3,7,6,2,3,7,6,
2,3,4,5,6,5,4,3,4,5,6,7,6,5,4,3,
1b,8,1,8,1,8,1b,8,1,8,1,8,1b,8,1,8,
1,8,2,7,1,8,2,7,1,8,2,7,1,8,2,7,
3b,6,4,5,3,6,2b,7,1,8,2,7,2,7,2,7,
2,3,4,5,7,6,5,4,2,3,4,5,7,6,5,4,
1b,2,8,7,1,2,8b,7,2,3,7,6,2b,3,7,6,
4,5,3,6,2,7,1,8,2,7,2,7,2,7,2,7,
2b/8,3,4,5,6,7,8,1,2,3,4,5,6,7,8,1,
7b/2,6,5,4,3,2,4b/1,5,6,7,8,1,{4}6b/2,
{16}8b/4b,3,2,1,8,7,3b/6b,2,1,8,7,6,{4}5b/2b,
{8}3,6,4,5,{16}4,5,3,6,2,7,1,8,
{32}1b/7h[8:1],2,3,4,,,,,8b/2h[8:1],7,6,5,,,,,1b/7h[8:1],2,3,4,5,6,7,8,1,2/6,3/7,4/8,{8}1bh[8:1]/5bh[8:1],
,,{4}7b/3b,,,{1}E3h[1:1]/B3h[1:1]/B2h[1:1]/B7h[1:1]/B6h[1:1]/E7h[1:1],
{16},,,,,,,,E3,E4,E5,E6,E7,E8,E1,E2,
{4}6-3[8:1]/2x-7[8:1],2/6,{16}8,4,1,5,2,6,{8}3,
{16}4b,5,4,5,{8}3/6,{16}4b,5,4,6,3,5,{4}4b,
{16}1,8,{8}1,7/2,{16}1,8,1,7,1,6,1,5,{8}1,
{16}1b,5,2h,6h,1h,5h,1b,5,2h,6h,1h,5h,{4}1b,
3-6[8:1]/7x-2[8:1],7/3,{16}1,5,8,4,7,3,{8}6,
{16}5b,4,5,4,{8}6/3,{16}5b,4,5,3,6,4,{4}5b,
{16}1,8,2,7,1/8,8/1,{8}8/1,{24}2,7,2,7,2,7,2,7,2,7,2,7,
{32}2b,1,8,7,6,5,4,3,2/7b,8,1,2,3,4,5,6,7/2b,1,8,7,6,5,4,3,2,1,8,7,6,5/6,4/7,3/8,
(105.75){4}2w6b[0.5674##0.0946]/1w5[0.5674##0.0946],(211.5)1b>1>2-6[32:121]/2b>2-6[32:121],{1},,,{16},,{24}D6,
A5,D5,A4,D4,A3,D3,A2,D2,
A1,D1,A8,D8,A7,D7,{4}A6/E7/E6/B6,
E
