&title=Alea jacta est!
&artist=BlackY fused with WAiKURO
&first=0
&des=CupLid
&des_5=
&lv_5=14+
&inote_5=(162){4},{16},{8},,,,,,8h[2:1],
{32}E1,E2,E3,E4,E5,E6,E7,E8,{8}E1,{16}2b-5[8:1],,,4,{8}2,6,
{16}7b-4[8:1],,,5,{8}7,3,{16}2b-6[8:1],,,4,{8}2,7,
8-4[8:1],2>5[8:1],8,2,{16}7b-4[8:1],,,5,{8}7,3,
{16}2b-5[8:1],,,4,{8}2,6,{4}7<4[8:1],{32}E7/7x>2[8:1],E6,{16}E5,{32},,,,E8,
E1,{16}E2,{32},,E7,E6,{8}E5,{32}E2,E3,{16}E4,7b-4[8:1],,,8,{8}7,3,
{16}2b-5[8:1],,,1,{8}2,6,{16}7b-3[8:1],,,8,{8}7,2,
1-5[8:1],7<4[8:1],1,7,{16}2b-5[8:1],,,1,{8}2,6,
{16}7b-4[8:1],,,8,{8}7,3,A2/B2,{16}E6,E4,,B7/A7,,B6,
B5,B4,B3,A6,A5,A4,{8}A3,{16}7,1,6,2,,3/5-1[8:1],,4,
3,2,,,2,8,3,7,,6/4-8[8:1],,5,6,7,,,7,
1,6,2,7,1,5,3,6,4,7,3,,2/8-4[8:1],,1,
2,3,,,3,5,2,6,,7/1-5[8:1],,8,7,6,,,6,
4,7,3,6,4,8,2,5-1[8:1],4,6,6,,8>3[8:1],,7,
6,5,,,1-5[8:1],1,2,2,,4<7[8:1],,3,2,1,,,2,
2,8,3,7,7,1,6,3,5,2,6,,7/1-5[8:1],,8,
7,6,,,6,3,7,2,{24}8,1,8,1,8,1,8,1,8,1,{12}8,
{16}A2,E3,E4,A4,A8,E8,E7,A6,2-5[8:1],1,,1,{8}2,6,
{16}7-4[8:1],8,,8,{8}7,3,{16}2-8[8:1],5,,5,{8}2-4[8:1],6,
2/5,{16}7,6,5,3,2,1,7-4[8:1],8,,8,{8}7,3,
{16}2-5[8:1],1,,1,{8}2,6,{16}7-1[8:1],4,,4,{8}7-5[8:1],3,
7/4,1b-5[8:1],,1b/5b,{16}7<4[8:1],7,,8,{8}7,3,
{16}2>5[8:1],2,,1,{8}2,6,{16}7-3[8:1],7,,8,{8}7,2,
{16}5h[8:1]/1h[8:1],,,6h[8:1]/2h[8:1],,,{8}7>8-5[16:3]/1<8-3[16:3],6/2,{16},,,,6x,2x,
7,1,7,1,5,3,5,3,7,6,5,4,1,2,3,4,
{24}8,7,6,2,3,4,7,6,5,1,2,3,{16}8b,,,8<6>4>2<8[16:57],{32},,,,E1,E2,{16}E3,
,,,,,,,,4,,,4,,,,,,,,,,,,,8,
{32},,,,E7,E6,{4}E5,
,,6,{32}B6,C,{16}B2,,,{4}4-8[8:1],
{32}B4,C,{16}B8,,,6-1[8:1],,,6h[16:3],,,,,2-5[8:1],
,,2h[16:3],,,,,{8}6/4,3,2/4,5,
6/4,{16}3,4,{8}3,2/5,,2/8b,{16}4b/6,,,7b/B4,
,2b/E6,,8b/E5,,C,,,1,8,1,8,2,7,2,7,
3,5,1,7,4,6,2,8,4>1[8:1],,,7/4,6,5,{8}4,
{16}5<8[8:1],,,2/5,3,4,{8}5-1[8:1],6,5/8<5[8:1],{16},,8/2,3,
4-6[16:1],,,4-2[16:1],,,{8}4,{16}8b,5,7,2b,4,3,7b,5,
6,1b,4,2,{8}5bh[4:1],{24}8,1,2,{8}3,{24}1/3,8,7,{8}6,3,
{24}2/5,6/3,7/4,8/5,,,7/4,6/3,5/2,4/1,{48},,,,{16}5V73[16:3],,,3-5[8:1],{8}5,2,
{16}1V37[16:3],,,7-1[8:1],{8}1,6,{16}6,5,4,3,6,5,4,3,
{24}7,8,7,8,7,8,{8}7,6,{2}5b>4v7[16:3]/3b<4v1[16:3],
{16}2/6V84[16:3],,,4-7[8:1],,,{8}3,2,{16}1,2,{8}3,{16}8/4,7/3,
{8}6/2,8/1,{32}7,6,5,4,,1,2,3,{8}4/8,{16}7-1[8:1],5,{8}6,7/4,
3-8[16:1],{16}7,7-4[16:1],,,{8}1,2,{16}3-5[8:1],1,{8}2,3/8,
7-4[16:1],{16}3,3-8[16:1],,,{8}5,6,6/4,2,5/3,
{16}7,2,6,4,7,2,5,3,{4}8b-6[8:1]*-5[8:1],8b-3[8:1]*-2[8:1],
8bw4[8:1]*-4[8:1],8b,{16}2,6,1,7,3,5,1,7,
2,3,4,8,7,6,1,2,3/5,5,4,6,3,3,4,2,
{24}8,7,6,1,8,7,2,1,8,3,2,1,{16}6x,2x,6x,2x,7,3,7,3,
8,4,8,4,{32}8,7,6,5,4,3,2,1,{4}8-4[8:1],8b/1bh[2:1],
{48}A2,D3,A3,D4,A4,D5,A5,D6,A6,D7,A7,D8,{4}A8,{16}A3/A2/E3,,,E6,,,{8}E4,
{16}A7/E7/A6,,,E1,,,{8}E5,{16}E7,C,{8}E3,{16}E6,E5,{8}E4,
{24}A6,A5,A4,A3,{96},,,,,,,,{32}E7,E6,E5,E4,{8}E3,{16}B7,B3,B6,B2,B5,B1,E5,E1,
5x,2,6,3,7,4,{8}8,{24}2,1,2,1,2,1,2,1,2,1,2,1,
2-4[8:1]*-6[8:1],1,2,1,2,1,{4}2,{16}1b/E6f,,,7b/E4f,,,{8}2b/E5f,
{16}8/1,,,2b/B6f,,,{8}8b/A4f,7,2b/A5f,{16}7b/A3f,,,1b/E5f,
,A6f/E6/E7,,A3f/E3/E4,,,{8}Cf/B7/B2,{16}8b-4[16:1],,,8b/E2/E3f,,,{8}1b-5[16:1],
{16},1b/E8/E7f,,,7b-3[16:1],,,7b/E2/E3f,,,{8}2b-6[16:1],{16},2b/E8/E7f,,,D5f/A5/A4,
,,D7/E7/B6/Cf/B3/E3/D3,,,{8}D1f/A8/A1,{16}4/5-1[8:1],,,3,,,{8}2,
{16}5/4-8[8:1],,,6,,,{8}7,{16}4/5<1[8:1],,,3,,,{8}2,
{16}5/4>8[8:1],,,6,,,{8}7,{16}6,5,4,3,6,5,4,3,
{24}7,6,5,4,3,2,7,6,5,4,3,2<1-3>2-6[24:19],{2}8b>1-7>8-4b[4:3],
{4},,,5b<7[8:1]/4b>2[8:1],
5b-1[8:1]/4b-8[8:1],5b/4b,{8}4,{16}4/7v4<7[4:1],8,{8}1,{24}4/7>1[8:1],3,2,
{8}1-5[8:1],2,3,4,{24},,,7/4,6/3,5/2,{4}4/1-5[8:1],
1/5,{8}8/2,{16}4,6,{8}3,4/2v5>2[4:1],1,{24}5/2<8[8:1],6,7,
{8}8-4[8:1],7,6,5,{24},,,2/5,3/6,4/7,{4}5/8-4[8:1],
8/4,7-4[8:1]/1-4[8:1],7/1,{8}5/3,{16}7V15[4:1],4,
{8}6,5-3[8:1],3-8[8:1],2h[4:1],,,4<1[4:1]/6>1[4:1],1,
6x/4x,{16},,,,8/2,7/3,{4}6h[8:1]/4h[8:1],{8}5/3,4h[8:1]/2h[8:1],
,6/3,{4}7h[8:1]/4h[8:1],{8}5/1,3,8/4,6,
{32}1,2,3,4,5/1,8,7,6,{4}5/Cf,{16}7,7,5,6,3,3,4,2,
7,5,6,3,4,2,6,5,{4}8<5[8:1],{32}4,3,2,1,{64}D5,A4,D4,A3,D3,A2,D2,A1,
{8}D1f/A8/E1,{16}6,7/5,,3,{8}4/2,{16}2,2,4,3,6,6,5,7,
2,4,3,6,5,7,3,4,{8}1h[8:1],5,{16}7,7,8,6,
3,3,4,2,{32}5,6,7,8,1/5,4,3,2,{8}1/Cf,{16},,,,5,4,
6,7,8,1,3,2,1,8,6,5,7,7,3,4,2,2,
8,5,7,2,4,3,6,5,{8}4/8,4/8,7/3,7/3,
{16}5,3,7,1,6,4,8,2,{4}5h[2:1],2>1[4:1],
{48},,,,,,,,,,,,A2,D3,A3,D4,A4,D5,A5,D6,A6,D7,A7,D8,{16}A8/1bx-5[8:1],1h[8:1],,5,{8}5,6,
{16}7b-3[8:1],7h[8:1],,3,{8}3,2,{16}1b-5[8:1],1h[8:1],,7,{8}7-3-7[4:1],8,
1-5-1b[4:1],A3f,,A5f,{16}8b-4[8:1],8h[8:1],,4,{8}4,3,
{16}2b-6[8:1],2h[8:1],,6,{8}6,7,{4}8/4,{32}7b/3b,6/2,{16}5/1,{32},,,,E7,
B6,{16}B5,{32},,E3,B3,{8}B4,C,{16}8b-4[8:1],8h[8:1],,4,{8}4,3,
{16}2b-6[8:1],2h[8:1],,6,{8}6,7,{16}8b-4[8:1],8h[8:1],,2,{8}2-6-2[4:1],1,
8-4-8b[4:1],A6f,,A4f,{16}1,2,3,4,7,6,5,4,
1,2,3,4,7,6,5,4,{24}1,2,3,8,1,2,7,8,1,6,7,8,
{32}4-8[8:1],5,6,7,8,1,2,3,{4}4b,{16}2/3b,,,5/4b,,7/6b,,2b/1,
,4b/5,,8b/7b,6b/1b,2b/5b<6-4<5-1[16:31],{8}4b/3b>2-4>3-7b[8:15],,A4f/D5/D4,
E
