&title=Daisy Crown
&artist=Empty Old City
&first=0
&des=Cyanide.
&des_5=Cyanide.
&lv_5=13+
&inote_5=(84){4},,,,,,,,,,,,,,,3-6[8:1],
,3,{16},,,,6-3[8:1],5,4,3,
{4}2h[8:1],,,3-6[8:1],
,6/3,{16},,,,1>4[4:1],8h[8:1],,,,7,
6,5,5h[4:1],,,6,7-3[8:1],8,1s5[8:1],2,{8}7>7[2:1],1>7[8:3],
{16},,,,,,,8,1,3<5[16:1],5<7[16:1],7,{4}8b>5b[8:3],
{8},6<1[4:1],{16},,,3,{8}3,{16}5,6h[16:5],1b,B1,C,B5,
E7,E8,E1,E2,,,,,,,1-5[8:5]*-5[8:5],2,{8}3h[4:1],B1,
{16},,B3,B4,,,,,,,,,,,,,,,,,,,,6,
4,5,B3,B5,3/6,5,4,5,
,,,,7,5,4,2,{4}3/8,{16}5h[4:1],4,3,2,
1h[8:1],B6,B4,B8,2,5/3,{8}4/6,{16}5,3,B6,B3,7/5,6,4,5/3,
,,6<3[2:1],6,{8}E1,C,E5,{16}3>6[2:1],3,{4}4,
{16},,6>3[4:1],6,,,,3,2,1,8,7,{8}6/8q4[8:1],7/1>7[8:3],
8/2,1,{16},,,3,4,5,6,7,{8}3p7[8:1],7>3[4:1],
3q7[8:1],3,{16},C,,2,{8}6,{16}3,7,,8,2,7,
8,6,5,7h[8:1],,B3,,6,4,5,2,8h[8:1],,C,,,,,,,,5/6,
5/4,3/4,,4/2,,8/4h[16:1],{4}Cf,
,2-8-3pp3b[8:5],,E3,
,1-6[4:1]/2-4[4:3],,A6f,
,2-7[4:3],,5-2[4:1],
{16},,,,,,,,,,,,3/7h[2:1],4,5,6,
,8,1,2,3h[2:1],6,5,4,,2,1,8,7h[16:7],4,5,6,
,8,,2,,4/8,{8}5/1,,1/8,{12}7/4h[12:1],6,5,
4/2h[12:1],3,2,3/1,{48},,,,,{16}4,{8}2,3q7[2:1]*p7[2:1],,3b,
,,,,{4}C,{16}7,8,2,3,
{8}4,{16}B5,B6,B1,B2,{8}B3,{16}7,6,4,3,2/B7,B6,B3,B2,
{8}B1,{16}8,7,6,5,{8}4b,B7/B6,B2/B3,{16}6,7,3,2,
{8}1,{16}B5,B6,B3,B2,{8}B1,{16},B2,B3,B4,6,5,4,3,
{8}2,{16}B2,B1,B8,B7,B6/B5,4,3,2,1-6[4:1],8,,,,,,,3-8[8:3],
2,,,,,,,3,4,{4}5-1[4:1],
{16}2,1,8,7-3[4:1],,,,,6,8,1,1-5[4:1],,,,,,,4,
6p2[4:1],,,,,,7,8,1qq5[16:7],{4}1,
{16},,5>2[16:3],6,,,,7,7,8,1,2,{8}3/1p5[8:1],2/8<2[8:3],
1/7,8,{16},,,6,5,4,3,2,{8}6p2[8:1],2<6[8:1],
6>2b[4:1],6,{16},7,{8}7,{16}8-4[8:1],1,2,3,,3,2-6[8:1],2,
8,7,6,5,,4<7[8:1],,2,1,8pp3[4:1],{8}8,{16}4,5,6,7qq4[4:1],
,,4,3,2,1,,,,,,,6q2[4:1],6,5,4,
,,3>8[4:1],3,4,5,,,,,,,6>3[4:1],6,7,8,
,,2q6[4:1],2,1,8,,,,,,,7p3[4:1],7,8,1,
,,2>5[4:1],2,1,8,,,,,,,5,5h[4:3],,4,
,6,,7,,1,,3,,4,,,{8}7h[8:1],{16}8,1h[8:1],
,2,{8}3h[8:1],{16}E5,E4,,,,,,,5,4h[4:3],,5,
,3,,2,,8,,6,,5,,6,7q3[8:1],,,8p4[8:1],
,,{8}1q5[8:1],,2bp6[8:1],{16},,,5,{8}4,{16}4<8[4:1],3,
,3,{8}2,{16},4,3,2,1,8,7h[8:1],8,{8}1h[8:1],{16}2,3h[8:1],
,5,5,4,3,2,,,{8}5,{64}5,E6,B6,B7,{16}E8,{4}1b,
{8},4,{4}4,{8},,5,5,
{48}5/E3,B3,B4,B5,,,{8}5x,{32},,E7,B7,B8,B1,{16}E2,5bx,{32},,,,B1,B2,E3,B3,{16}B4,,,4,
5,4,{48}3,,4x,,5x,,{16}6x,,5,,,{8}4,{4}3<6[0.7143##0.5357],
(168){1},
{16}1,1,{8}1,2/8,{16}5,6,5,6,5>2b[8:3],6,{4}5<8b[4:1],
{8},,,,,1/8,{4}2,
{8},2x/B6f/B7f,,,6xh[4:1]/B2f/B3f,,,4xh[4:1]/B8f/B7f,
,,,,7/8-4[8:1],6,{4}5pp1[8:3],
3,2q6[8:1],2/8pp3[8:3],{8}8/7,5<1[4:1],
,,,,,2h[8:9],{4}3-8[8:1],
3,7-4[8:1],7,3w7[2:1],
,Cf,{8},,,,,2pp5[2:1],
2,4,5,6,{4}7-3[4:1],
{8}7,8,1pp5[8:3],1,5,6,{4}7,
{8}7qq4[2:1],7,5,4,3,2,{4}1>4[4:1],
4<7[4:1],7>2[4:1],2>6b[4:1],6-2[4:1],
{8}8V64[4:1],8V24[4:1],,,,C,,7h[16:3],
{16},6h[16:3],,,{8}5h[8:1],2h[16:3],{16},3h[16:3],,,{8}4,5/4,
7/6,8/1,,2h[4:1],,3-6b[1:1],,,,4h[4:3],
E
