&title=Tank!(TV Edit)
&artist=Seatbelts
&first=0.025
&des=>
&lv_5=13+
&inote_5=(138)
{4},,,,{16}3,
4,,6,{8}5,{16}2,4,,7,{8}5,(144)1w5[4:1],2/8,
(139){4},(148){8},(155),{16}2x,(160)6x,(143){8}4x,(136){4}1b,
(143){1}Ch[1:2],
{4},,,{8},(115),
(138){4}A8,A4,(142)A7,A3,
(140)A6/B6,(142)A2,A5,B1/A1,
(140)D7/E7,B4/A4,E6,(145)B1/A1/C,
(142)3x,2x,1x-4<6[16:3],(137),
(140){16}7,5h[8:1],,6,{8}4h[8:1],{16}5,3h[8:1],,4<1[64:59],(142.2){8}2,{16},{64},,,3xh[#1.502066],{8},(141.5){2},
(144){4},(138),
(141){16}2,4h[8:1],,3,{8}5h[#0.2127666],(137){16}4,6h[8:1],,5>8[8:7],(150){8}7,(145),6xh[#1.492498],
{2},(131){8},{4},(135){8},
(141){16}7,5h[8:1],,6,{8}2h[8:1],{16}5,3h[8:1],,1qq4[16:15],{8}4,{16},{48},,3h[#1.493418],(133){8},
(142){2},,
{16}2,4h[8:1],,3,{8}7h[8:1],{16}4,6h[8:1],,8pp5[16:15],{8}5,{16},{48},,6h[48:43],{1},{8},(139){16}4-2[16:1],
3,,8b,{8},(134){16}5-1[16:1],4,,7b,{8},(141){16}6/2,3/5,{8},(136.3){16}5-7[16:1],
6,,1b,{8},{16}4-8[16:1],5,,2b,{8},(147){16}3/7,4/6,{8},(143.5){16}2,
4,,4,{8}6,{16}6,8,,8,(150){8}1<6[8:1],,(151)1,
(132.5){32}D6,A5,A4,A3,A2,A1,A8,A7,(145){4}A6f/D6,(136){8}2x/7x,1/8,,{48}1b/8b,2/7,3/6,4>5[16:9]/5<4[16:9],{4},{24},(148){4},
(142){2},
(140){16}3-1[8:1],{8},{16}4,(142){8}3,5,(138){16}6-4[8:1],{8},{16}8,{8}6,1,
(142){4}2-6[8:1],{8}7,8,{16}1<6[8:1],{8},{16}5,{8}1,4,
3>8[8:1],{16}4,5,{8}3,7,(141.5)6/8,5/1,2/4,3,
{2}5-7[8:1]/4qq8[4:3],{6}7,6,5,
(143)4h[6:1],1h[6:1],2h[#0.2797203],(146)3h[16:3],{48},{16}6h[#0.3201294],(138){8},(142)5h[8:1],
{16}4-8[16:1],{8},{16}4b/2b,{8},{16}3,4,(141)5-1[16:1],{8},{16}5b/7b,{8},{16}6,5,
4/3,{8},{16}2/1,(147.5){8},{16}7,8,(142)6,1,5,4,(137)7,3,8,2,
(137.5)4,3h[8:1],,5,{8}4h[8:1],{16}6,5h[8:1],,7>1[8:1],{8}6h[#0.2181816],(143),2,
(138.5)3h[16:1],3h[16:1],{16}3,4,5,6,(140)3,4,5,6,1,8h[#0.3214302],{8},{16}5,
6h[8:1],,4,{8}5h[#0.2142868],{16}3,4h[8:1],,2<8[8:1],(142){8}3h[#0.2112694],(148),7,
(140){16}6,6,,4/3,,5/7,,2/4,,7/8,,6,{8}5,(132)2/1,
(141){16}3,4,,4,{8}5,{16}5,6,(144.5),6<1[8:1],{8}7h[8:1],,{24}2,3,4,
(141){8}5b,{24}7,6,5,{8}4b,{24}1,2,3,{8}4b,{16}6,5,(143),3,4,2,
(140.25)6,5,,5,{8}4,{16}4,3,,3>8[8:1],{8}2h[#0.2139015],(143),6h[#0.422554],
(141),7,5/6,{16}4,3,{8}2,2bh[4:1]/4h[4:1],{4},(134.5){16}1<6[16:1],
8,,3b,{8},(146){16}4-8[16:1],5,,{64},2b,{32},(125){8},(146){16}4/7,6/3,{8},(138.5){16}5>2[16:1],
4,,{64},7b,{16},,{32},(146){48},8-4[16:1],{24},1,{16},{64},,,6b,{8},(136){32},3/8,,2/7,{8},(138){16}6bx<1[16:1]/1b>4[16:1],
2/5,{4},(144){16}8bx<5b[16:1]/3bx>8b[16:1],7/4,{4},(138){16}E1,E5,{8},(130),
(159){16}2/3,(139.5)3/4,,,,(148),6/7,(134.5)5/6,{4},{8},(135){32}4b/1bpp4[8:5],
2/5,3/6,4/7,{4},(143.5){32}8b,7,6,5-8[16:3],{4},(150),
(145){16}2,6,2,6,3,7,3,7,(142)4v3-5[8:1],8,4,8,(150){4},
(134){32}5b/8bqq5[8:5],7/4,6/3,5/2,{4},(135){32}1b,2,3,4-1[32:5],{4},(146),
(145){24}2,6,2,6,2,6,(141.5){16}1,7,1,7,8-4[8:1],8,8,8,{4}8b,
(136.5){16}1h[8:1]/3-8V24[16:5],{8},{16}7h[8:1],{8},(141)5h[#0.6421356],,(138.5){32}6x,7,8,1,2,3,4,5,(138){8}6h[4:1]/7bV16-4[4:1],
{16},,{64},,,{128},2h[#0.3396759],{16},,,(142){8},{16}3xh[8:1]/1x-5[8:1],{8},{16}7h[#0.3169022],{8},(134),
(140)7b/5b,(142){16}2,(149)2,(140)2,(138)2,(139)2,(140)2,(145)2,(135)2,(140)2,(130)2,(128){8}1h[#0.234375],(140){16}3,2,
(145)3,(135)2,(132){8}1h[#0.227272],(152){16}2<3b[32:21],(140)2,(158)2,(118)2,(123){4}1h[#1.287811],(75),
{64}3b,2/4,3/5,4/6,{16}5/7>2[32:71]*>2[32:71],{1},{4},,,{16},{48}3,
4,5,
{16}6>3b[0.6##0.2],{8},{16}6b,
