&title=ぐるぐるWASH!コインランドリー・ディスコ
&artist=D.watt(IOSYS)feat.ちよこ
&first=0.008
&des=Kurage
&lv_6=13+
&inote_5=
&inote_6=(132)
{4},,,,
1>4[8:1],5<8[8:1],3q6[16:5],,7v6-4[32:7],,2v3-5[32:7],,
7h[4:1],5h[4:1],3h[4:1],1h[4:1],{8}7pp2[16:7],,3-6[16:3],,,,,,
{4}8<5[8:1],4>1[8:1],6p3[16:5],,1s5[32:7],,8z4[32:7],,
2h[4:1],4h[4:1],6h[4:1],8h[4:1],2-6[4:1],,8h[16:1],{8}3h[16:1]/7h[16:1],37,
{8}1<6[8:1]/5>2[8:1],,,,1<6[8:1]/5>2[8:1],,,,
7-3[8:1]/4-7[8:1],,4>1[8:1]/7,,{32}4x<7[8:1]/D7,D6,D5,,,,,,4x/D2,D3,D4,,,,,,
{8}8>3[8:1]/4<7[8:1],,,,8>3[8:1]/4<7[8:1],,,,
1-5[8:1]/5-2[8:1],,1/5-7-4-8[32:11],,1bh[8:1],,1bh[8:1],,
{8}8>3[8:1]/4<7[8:1],,,,8>3[8:1]/4<7[8:1],,,,
2-6[8:1]/5-2[8:1],,5<8[8:1]/2,,{32}5x>2[8:1]/D3,D4,D5,,,,,,5x/D8,D7,D6,,,,,,
{8}8>3[8:1]/4<7[8:1],,,,8>3[8:1]/4<7[8:1],,,,
1bp3[8:1]/5bp7[8:1],,1b/5b,,{64}D5,A5,D6,A6,D7,A7,D8,A8,D1,A1,D2,A2,D3,A3,D4,A4,{4}Cf/D5,
{8}6xqq3[4:2],6h[4:2]/3,,,,,{16}6,,,4/5<8[16:3],
,,3,,3,,,,1h[16:3],,,2h[16:3],,,{8}3,
4,2v4[8:1]/4pp6[8:1],,,,,{16}47,,,5,
6,,45,,3,,3,,25,,,4,3,,45,,
{8}3pp6[4:2],3h[4:2]/6,,,,,{16}3,,,5/4>1[16:3],
,,6,,6,,,,8h[16:3],,,7h[16:3],,,{8}6,
5,5/6qq4[8:1],,2,2p6[8:1],,5<3[8:2],{16}5,4h[16:5],
{8},,,4,5<8[8:1]/3>8[8:1],{16},3h[16:1]/5h[16:1],{4},
{16}2b/6b-8[32:3],,,5,6,,3,,3-5[32:3]/7,,,1,3,,7,,
7-3[8:1]/8,,,,B1/E1,,,,24,,1,,78,,6,,
4/5pp4[16:5],,4h[8:1],,,,3>7[16:3],,,,,5,,,5,,
6V47[8:2],,,,4,,2h[4:1],,,,1,2,1,,28,,
{16}7/3-1[32:3],,,4,3,,6,,6-4[32:3]/2,,,8,6,,2,,
2-6-4[32:7]/1,,,,6,,8h[8:2],,,,3,,37,,6,,
4pp5[32:5]/5qq4[32:5],,,,,,,,26,,,,B6/B2/C,,8<5v7[8:2]/4>1v3[8:2],,
{8},,,,4bv1[8:1]/8bv5[8:1],,4b/8b,,
{16}2b<7[8:1],,,2h[16:3]/3,,,,,8<5[8:1],,,8h[16:3]/1,,,,,
6>3[8:1],,,6h[16:3]/7,,,,,{8}2-5[8:1]/4-8[8:1],1,24,,
{16}7>2[8:1],,,7h[16:3]/6,,,,,1>4[8:1],,,1h[16:3]/8,,,,,
3<6[8:1],,,3h[16:3]/2,,,,,{8}5-1[8:1]/7-4[8:1],8,5/7>2[8:1],,
{4}3<6[8:1]/7,1-5[8:1]/3,1bw5[8:1],1b,{8}67,8,12,3,45,6,78,1,
{32}1x,2,3,4,5,6,7,8,1x,2,3,4,5,6,7,8,{48}1x,2,3,4,5,6,7,8,1,2,3,4,{64}5x,6,7,8,1,2,3,4,5,6,7,8,1,2,3,4,
{4}8b-4[8:1],8b<5[8:1]*>3[8:1],8bw4b[8:1],8b`Cf,
{8}6p1[8:1]/2>5[8:1],,26,{16},7,{8}8V64[8:1],3/4V28[8:1],8,,
5,7-3[8:1]/1,{16}6,5,7,,1,,1/2>5[8:1],,4,8,2,,
{8}6,67,18,23,5-1[8:1]/4-8[8:1],,54,,
6<3[16:3]/3,,4>6[32:7],,5w1[8:1],,Cf,,
{8}3q8[8:1]/7<4[8:1],,73,{16},2,{8}1V35[8:1],6/5V71[8:1],1,,
4,{16}2-6[8:1],8,3,4,2,,8,,7<4[8:1],8,5,1,7,,
{8}3,23,81,67,4>1[8:1]/5<8[8:1],,45,,
{8}8b/6b,3b/1b,7b/5b,4b/2b,4w8[8:1],,Cf,,
{8}2q6[8:1],1,8q4[8:1],7,6q2[8:1],5,4q8[8:1],3,2-5[8:1],1-6[8:1],2,1,,5pp5[8:2]*qq5[8:2]/4,,5x,,
{8},7-3[8:1],5,3,1-5[8:1],7,5,3-7[8:1],1,7,5,5-1[8:1]*s1[8:1],,,,
{8}7p3[8:1],8,1p5[8:1],2,3p7[8:1],4,5p1[8:1],6,7-4[8:1],8-3[8:1],7,8,,3>8z4[32:11]/5<8s4[32:11],,3x/5x,
,,,53,53,6pp4[32:9]/2qq4[32:9],,,,,5>8b[32:5]*-8b[32:5],,5,,Cf,,
{32}8<5[8:1],1,2,3,4,5,,,{4},{32}8<5[8:1],1,2,3,4,5,,,{4},
8v3[8:1]/4v7[8:1],4>1[8:1]/8,{32}4x<7[8:1]/D7,D6,D5,,,,,,4x/D2,D3,D4,,,,,,
{32}6>3[8:1],7,8,1,2,3,,,{4},{32}6>3[8:1],7,8,1,2,3,,,{4},
8v3[8:1]/4v7[8:1],8/4-2-5-1[32:11],8bh[8:1],8bh[8:1],
{32}1>4[8:1],8,7,6,5,4,,,{4},{32}1>4[8:1],8,7,6,5,4,,,{4},
1v6[8:1]/5v2[8:1],5<8[8:1]/1,{32}5x>2[8:1]/D3,D4,D5,,,,,,5x/D8,D7,D6,,,,,,
{32}3<6[8:1],2,1,8,7,6,,,{4},{32}3<6[8:1],2,1,8,7,6,,,{4},
{8}8bq6[8:1]/4bq2[8:1],,8b/4b,,{64}D5,A4,D4,A3,D3,A2,D2,A1,D1,A8,D8,A7,D7,A6,D6,A5,{4}Cf/D5,
