&title=空奏列車
&artist=Orangestar feat.IA
&first=0.09
&lv_5=14
&des_5=Lin
&inote_5=
(175){4},,,,,,,,,,,,{8}1,
2,3,7,6,5,2,3,
4,8,7,6,B1,B2,B3,B7,
B6,B5,B2,B3,B4,B8,B7,B6,
1/6xh[8:11],2,3,1,2,3,2,3,
4,2,3,4,8/3h[8:11],7,6,8,
7,6,7,6,5,7,6,5,
3/5,3/5,3/6,3/6,3/7,3/7,3/8,3/8,
{16}3,8,3,8,2,8,2,8,1,8,1,8,1,8,1,8,
1,8,1,8,1,8,{8}1h[8:5],{2},{8}7h[8:1],
2h[8:1],7h[8:1],2h[8:1],8-5[8:1],7,2/8-3[8:1],1,
6/8-4[8:1],7,8,1,,7/1-5[8:1],8,1/7-3[8:1],
8,7/1,8,1,1-4[8:1],2,7/1-6[8:1],8,
3/1-5[8:1],2,1,8,,8-4[8:1],1,8/2-6[8:1],
1,2/8,1,8,8-4[8:1],1-5[8:1],8,1,
7-4[8:1],2q5[4:1],7,2,,8-4[8:1],1,8/2-6[8:1],
1,2/8,1,2,1-5[8:1],8-4[8:1],1,8,
2-5[8:1],7p4[4:1],2,7,,1-5[8:1],8,1/7-3[8:1],
8,7/1,8,7b,1>4[8:1],{4},{8}8<5[8:1],
{4},1-5[8:1],{8},8-4[8:1],{4},1-4[8:1]*-6[8:1],
1,{8}2>4[8:1],{4},{8}1q5[8:1],
{4},8p4[8:1],{8},7<5[8:1],{4},2-5[8:1]*-6[8:1],
2,{8}2>4[8:1],{4},{8}8>2[8:1],
{4},6<8[8:1],{8},4<6[8:1],{4},3-7[8:1]*-8[8:1],
3,{8}4-2[8:1],{4},{8}6-4[8:1],
{4},8-6[8:1],{8},2-8[8:1],{4},7w3[8:1]*w3[8:1],
7b,{8}1>5[8:3],{4},{8}5<1[8:3],
{4},1>5[8:3],{8},5<1[8:3],{4},{2}1-5[8:1]*-4[8:1],
{8}6V42[8:3],{4},{8}2V86[8:3],
{4},6V42[8:3],{8},2V86[8:3],{4},{2}6-3[8:1]*-4[8:1],
{8}1>4[8:3],{4},{8}4q1[8:3],
{4},1<5[8:3],{8},5p8[8:3],{4},{2}8-6[8:1]*-2[8:1],
{8}5V31[8:3],{4},{8}1-5[8:3],
{4},5V71[8:3],{8},1-5[8:3],{4},{2}5-7[8:1]*-3[8:1],
{8}1h[8:11]/2h[4:1],{4},{8}4h[4:1],
{4},6h[4:1],{8},8h[4:1],{4},8z4[8:1]/1s5[8:1],
8b/1b,6h[8:3],{8}5,7,
,6-2[8:1],5/7,6,,3-7[8:1],2/4,3,
,6/8,{16}7,8,7,8,{2}6h[4:1]/1h[4:1],
{8}2/1h[8:7],3,4,5-2[8:1],,5-8[8:1],,5,
,1<4[8:1],2,1,,8>5[8:1],7,8,
,1w5[8:1],8/2,1b/Cf,,,,3h[2:1],
,7,8,1,1h[4:1]/2h[4:1],{4},{8}3h[4:1]/4h[4:1],
{4},6h[4:1]/5h[4:1],{8},7h[4:1]/8h[4:1],{4},7-3[8:1]/8-4[8:1],
7b/8b,2h[8:3],{8}3,4,
,5-1[8:1],5,5h[4:1],,4-8[8:1],4,4h[4:1],
,6,{16}5,3,5,3,{2}5h[4:1]/2h[4:1],
{8}1/8h[8:7],7,6,5-3[8:1],,5-2[8:1],,5,
,8>5[8:1],7,8,,1<4[8:1],2,1,
,8w4[8:1],7/1,8b,,,,6h[2:1],
,1,8,7,{32}8,1,2,3,{8}4h[8:5],,{32}5,6,7,8,
1h[4:1],{4},{32}8/3,7/2,6/1,{8}5h[8:3]/8h[8:3],{2},{32}5/8h,
6/1h,7/2h,8/3h,{8}1/4h,{4}4-7[8:1]/1-6[8:1],1-4[8:1]/4-1[8:1],1/4,
{8}2/5,{16}2,4,{8}2,2/3,4/2h[16:1],5/2h[16:1],6/2h[16:1],7/2h[16:1],
{2}2h[4:1]/8h[4:1],{32}8,1,2,3,{8}4h[4:1],8,{32}8,1,2,3,
{8}4,{32}8,1/7,2/6,3/5,{8}4,{32}1,8,7,6,{8}5h[4:1],1,{32}1,8,7,6,{8}5,
{32}1,8/2,7/3,6/4,{8}5,7/2,8/3,{16}2,5,2,6,2,7,2,8,
2,7,2,6,2,5,2,4,1,4,8,4,1,4,{8}2h[4:1],
,6h[8:1],3h[8:1],7h[8:1],4b,{4},{24}4,5,4,
{8}5,4,3,{32}1,2,3,4,{8}5h[2:1],6,7,{32}6,7,8,1,
{8}2,5/8,{32}5,4,3,2,{8}1h[4:1],,{32}8,7,6,5,4,3,2,1,{8}8h[4:1],
,{32}4,5,6,7,8,1,2,3,{8}4h[32:9],{32},,,,,8,1,2,3,4/8,5/1,6/2,{8}7b/3h[2:1],
,8b,7b,6b,{2}6b-3[2:7]/2b-7[2:7],
,,,,,,,7b-2[2:7]/3b-6[2:7],
,,,,,,,{4}2>5[2:3],
C,
C,C,C,C,
C,C,C/B4,C/B3,
C/B2,C/B1,C/B8,C/B7,
C/B6,C/B5,6p3[2:3],C,
C,C,C,C,
C,C,C/B7/B6/E7/B2/B3/E3,C/B7/B6/B2/B3,
C,Cfh[1:1],{1},{32}8b/4h[4:5],
7x,6x,5x,{4},{32}8x,1x,2x,3x,
{4},{32}8x,E8f,B7f,B6f,{8}E6f,,{32}8x,E1f,B1f,B2f,{4}E3f,
4-8[8:1]/8-4[8:1],8/4/Cf/B4/B8,6h[8:3],{8}1,2,
6/3,7-5[8:1]/4-2[8:1],5/8,7/4,,3-7[8:1]/6-2[8:1],5/2,6/3,
,1/8,{16}1,8,1,8,{2}2h[4:1]/7h[4:1],
{8}7h[4:1],8,1,2-6[8:1]/8-4[8:1],,2>5[8:1]/8<5[8:1],,8/2,
,6/4,3,2-6[8:1],1/3,2,8-4[8:1],1/7,
8,1-6[8:1]*-4[8:1],8/2,1b/Cf,,,,1h[2:1],
,8,7,6,{32}1x/5h[4:5],2x,3x,4x,{4},{32}1x,8x,7x,6x,
{4},{32}1x/E2f,2x/E3f,3x/E4f,4x/E5f,{4},{32}1x/E1f,8x/E8f,7x/E7f,6x/E6f,{4},1V73[8:1]/5V37[8:1],
1/5/B3/B7/Cf,6h[8:3],{8}2,1,
3,5-2[8:1]/4-7[8:1],3/6,4/5,,5z1[8:1]/4s8[8:1],3/6,4/5,
,2/7,{16}1,8,1,8,{2}2h[4:1]/7h[4:1],
{8}5h[8:3],7,8,1-6[8:1]*-7[8:1],,1-4[8:1]*-3[8:1],,1,
,8/1,7,7-3[8:1],7,6-2[8:1],6,5-1[8:1],
5,4w8[8:1],4,4b/Cf,,,,6h[4:1]/2<7>2[4:1],
,2,6,6,{32}1x,2x,3x,4x,5x,6x,7x,8x,1x,2x,3x,4x,5x,6x,7x,8x,
1x,2x,3x,4x,5x,6x,7x,8x,1x,2x,3x,4x,5x,6x,7x,8x,1x,2x,3x,4x,5x,6x,7x,8x,1x,2x,3x,4x,5x,6x,7x,8x,
1x,2x,3x,4x,5x,6x,7x,8x,1x,2x,3x,4x,5x,6x,7x,8x,1x,2x,3x,4x,5x,6x,7x,8x,1x,2x,3x,4x,5x,6x,7x,8x,
1x,2x,3x,4x,5x,6x,7x,8x,1x,2x,3x,4x,5x,6x,7x,8x,1x,2x,3x,4x,5x,6x,7x,8x,1x,2x,3x,4x,5x,6x,7x,8x,
{4}1x,1h[4:15],{2}8h[2:7],
{4},,,,,,,,,,,,,{16}8,
1,8,1,{4}8<6[8:1],1/8-5[8:1],
8-4[8:1],{8}8,1>3[8:1],,8/1-4[8:1],,{24}8/1-5[8:1],7,6,
{8},1,8,7,{4}8-6[8:1],8-5[8:1]/1-3[8:1],
1/8-4[8:1],{8}8,1-3[8:1],,8/1-4[8:1],,{24}8/1-5[8:1],7,6,
{8},1,8,1,{4}8/1-3[8:1],1-4[8:1],
8/1-5[8:1],{8}1,8-6[8:1],,1/8-5[8:1],,{24}1/8-4[8:1],2,3,
{8},8,1>3[8:1],8,{4}1-4[8:1],1-5[8:1]/8-6[8:1],
1,{8}8,8<6[8:1],,{24}2/8-5[8:1],3,4,{8},{24}1/8-4[8:1],2,3,
{8}4-8[8:1],8/2,2,2b,7,2,6,3,
5,4,6,3,7,2,{16}8,1,8,1,
{8}8,2,7,3,6,4,5,3,
6,2,{16}8,1,8,1,{4}7,6,
6,6,6/Ch[4:7],5,
4,3,3,3,
3,3,
E
