&title=月葬
&artist=黒魔 × rintaro soma
&first=1.28
&des=Caerulea
&des_5=Caerulea
&lv_5=14+
&inote_5=(190){4},,,,,,,,,,,,{1}2bqq6[2:3]/7b-3[4:1],
C,
7pp3[2:3]/2-6[4:1],
C,
{8}4V25[8:3],,,5V38[8:3],,,,,{2}C,
{8}D6,D7,D8,D1,
2-6[8:1],1,2,{16}7,8,1,2,3,4,{4}5h[4:1],
{16}1,8,7,6,{24}5,4/6,3/7,2/8,{48},,,,{16}1,2,1,2,,,,,{8}C/1<3[4:3],
,,3h[4:1],,,{4}2h[4:1],
{8},1h[4:1],,,8/7,6/1,{4}2/5,
{8}4,3,5,4-8[8:1],,4/7>4[8:3],,7,
2h[4:1],,,1pp8[8:3],4,5,6,7,
7h[4:1],,,6h[4:1]/1h[4:1],,,7v4[8:1],4V63[4:1],
,,{4}1h[8:1],{16}2,4,3,5,4,6,5,7,
{8}6,{16}E5,E4,{8}E3,{16}1,8,7,6,{8}5,{16}E8,E7,{8}E6,
,4,5,6/3<6[8:1],{24},,,7-4[8:1],8,1,{4}2,
3h[8:1],4h[8:1]/6h[8:1],{8}7,5,6,4,
{4}6h[8:1],5h[8:1]/3h[8:1],{8}2,4,3,5,
{4}2h[8:1]/C,1h[8:1]/7h[8:1],{8}6,8,7,1,
{4}7h[8:1]/C,8h[8:1]/2h[8:1],{8}3,1,2,{16}8,1,
{8}7h[8:1],2,7h[8:1],3,6h[8:1],4,6h[8:1],5,
3h[8:1],6,3h[8:1],7,2h[8:1],8,2h[8:1],1,
3/8,7,4/5,3,6/1,2,5/4,Ch[2:1],
{16},,,,,,,,,,,,7,1,{8}7,
{24}6/E1,5,{12}4,{48},6/E2,,5,,4,,,,,{24}6/E3,5,4,,,,,,,2/E1,3,{48}4,,,,,2/E8,,3,
,4,,,,,{24}2/E7,3,4,{48},,,,,,,,,,,,{16}7,6,1,2,8,7,2,3,
{24}8b/4h[12:1],7,{12}6,{48},8b/4h[12:1],,7,,6,,,,,{24}8b/4h[12:1],7,6,,,,,,,1b/5h[12:1],2,{48}3,,,,,1b/5h[12:1],,2,
,3,,,,,{24}1b/5h[12:1],2,3,{48},,,,,,,,,,,,{16}7<4[8:1],8,7,8,{4}7,
{8}3-7[8:1],4,3,8,6-1-3[4:1],7,{4}6,
{8}5-1[8:1],4,5,4,2-5-7[4:1],3,{4}2,
{8}1,1,{24}8,7,6,8,1,2,{8}8,8,{24}1,2,3,1,8,7,
{1}6bh[4:19]/4z8>1s5[8:5],
Cf,
5pp1[2:1],
8qq4[2:1],
3<8[2:1],
{8}1/5,2/6,3/7,{16}6,5,6,5,{8}7,{16}1,8,2,7,
3,4,2,5,3,6,1,8,2,1,3,4,5,6,7,8,
{8}1/5,1/5,2/6,2/6,{16}7,3,7,3,{8}8,8,
{16},,1,1,1,1,1,1,{4}1>5[8:1],{24}5,6,7,8,,,{8}1,
3,1,{16}2,4,2,4,{8}1-3[8:1],5,{16}1/8,7,
{8}6,6,8,{16}7,5,7,5,{8}8-6[8:1],4,{16}1/8,2,
{8}3,5,4,{16}6,4,5,3,{8}4,2/5,{16}1,8,
{8}1,7,5/6,{16}4,5,4,3,{8}4,1/2,{16}2/1,3/8,
4/7x<4[16:3],,,4x>1[16:3],,,{8}1x<6[8:1],{16},,,,5,4,3,2,
{8}6/1-5v2[4:1],7/8,{16},,,,,,,,4,2,4,2,
{8}5<8[8:1],8>3[8:1],{4}3<6[8:1],{16}E8,E1,E2,E3,E4,E5,E6,E7,
{8}8<5[8:1],1,{4}8,{16}4,5,6,7,4,3,2,1,
6,5,7,3,4,2,7,5,8,2,4,1,8,1,6,5,
7,6,7,2,1,2,5,4,{8}5,3h[8:1]/6h[8:1],{16},,,,2/6bx,
3,4,5/1bx,6,7,8/4bx,1,2,3/7bx,,,,,7/3bx,6,
5,4/8bx,3,2,1/5bx,8,7,6/2bx,,,{8}5h[8:3],{16},,,,8b,
1,2,3/8b,4,5,6/3b,7,8,1/6b,2,3,1b/4,8,7,6/1b,
5,4,3/6b,2,1,8/3b,7,6,{8}5b/Cf,{16}1x,2x,1x,2x,1,2,
{12}1,2,4,3,5,4,7,8,5,4,6,5,
{1}7b<7b[1:2],
,7V13V57[1:2],
,E2h[2:1],
E3h[2:1],
E4h[2:1],
E5h[2:1],
6<6[4:7]*>6[4:7],
{2}E2/B2/E3,C,
{1}E7/B6/E6,
{2},5>2[2:1],
{1}2-5-8<5[1:1],
5V31v4[1:1],
4v7V51[1:1],
1V37V52[1:1],
1h[2:3],
5h[2:1],
{4}1h[8:1]/E7,2h[8:1]/E7,3h[8:1]/E7,4h[8:1]/E7,
8h[8:1]/E3,7h[8:1]/E3,6h[8:1]/E3,5h[8:1]/E3,
{8}4,5,3,4,5,4,6,5,
{4}7<3[4:1],3>7[4:1],{2}7<3[4:1],
{8}E4/B4,1,E6/B6,2,E5/B5,1,{4}B7/E7,
{8}E6/B5,8,E4/B3,7,E5/B4,8,E3/B2,6,
4-8[8:1],4,7-3[8:1],7,5-1[8:1],5,8-4[8:1],8,
2-6[8:1],2,{4}7<4[8:1],7/3-7[8:1],3,
{8}5-1[8:1],5,2-6[8:1],2,4-8[8:1],4,1-5[8:1],1,
7-3[8:1],7,{4}2>5[8:1],2/6-2[8:1],6,
3V15[4:1],{8}4,5,{4}6-2-5[4:1],{8}2,1,
{4}8-4[8:1],8/5-8[8:1],{2}5/2-5v3[4:1],
{4}6V84[4:1],{8}5,4,{4}3-7-4[4:1],{8}7,8,
{4}1-5[8:1],1/4V62-8[8:3],{2}4/7-3b[8:1],
Ch[8:3],{16}A8,A4,B7,B3,A7,A3,D6,D2,
E8,E4,B5,B1,B8,B4,B6,B2,{2}Cfh[8:1],
{16}1,2,1,2,1,2,1,2,8,1,8,1,8,1,8,1,
7,8,7,8,7,8,7,8,1,2,3,4,8,7,6,5,
8,7,1,6,8,7,1,6,1,8,2,7,1,8,2,7,
2,1,3,8,2,1,3,8,{2}C,
{16}6b,4,5,3,4,2,1b,3,8,4,6,5,7b,1,8,2,
7b,1,8,2,1,3,4b,2,5,1,7,8,6b,4,5,3,
4b,2,5,4,6,3,7b,5,8,2,1,3,8b,5,7,4,
6b,3,5,2,8,1,7b,2,5,3,6,4,8b,2,7,1,
5b,2,8,4,7,1,6b,2,4,3,5,4,7b,8,6,1,
5b,4,6,2,8,1,3b,7,5,6,4,5,3b,6,4,5,
4b,7,1,5,2,8,3b,7,5,6,4,5,2b,1,3,8,
4,5,3b,7,1,8,6,2,4b,3,5,4,6b,3,5,4,
8b,7,6,3/5,2,1,8/4,5,6,7/2,3,4,{8}5/8,6/3,
{16}1b/4,2,3,6/4,7,8,1/5,4,3,2/7,6,5,{8}1/4,3/6,
{16}5/8,7,6,5/8,7,6,{8}5/8,{16}5/2,3,4,5/2,3,4,{8}5/2,
{16}8/5,7,6,5/7,6,5,4/6,5,4,3/5,4,3,{4}7-1[8:1]/2-8[8:1],
E1f,{8}3,3,,5,5,{16}3,4,
{4}2,{8}6,6,,4,4,{16}6,5,
{4}7,{8}B4/E4,B6/E7,,B3h[8:5],,B7h[8:3],
,,,,2,3,4,5,
6h[4:1],{16},,,,8,7,8,7,{8}1h[8:1],{24},,,8,7,6,
{8}5/3h[4:1],{16},,,,1,2,1,2,{8}8h[8:1],{24},,,1,2,3,
{4}4/6,{8}7/4,{16}6,5,{8}6,2/5,{16}2,4,3,5,
{8}4,6,{16}4,3,2,1,5,6,7,8,{4}Ch[16:1],
{24}2/1,3,4,5,,,{8}7,{24}7/8,6,5,{8}4,{16}2,5,3,6,{24}4,5,6,
7,8,1,2,{48},,,,{16}7,3,6,4,8,2,7,3,6,4,5,3,
{24}6b,7,8,1,2,3,4,5,6,3b/7,2,1,8,7,6,5,4
,3,{8}2/7,1/8,
{16}7,8,7,8,7,6,7,6,7,5,7,4,7,3,7,2,
{8}8b/1b,{16}2,3,4/8b,5,{8}8b/6,{16}7,6,5/1b,4,{4}1b/3,
{16}3b/1,2/4,3/5b,4/6,5/7b,6/8,7,8,{32}1b,2,3,4,1b,8,7,6,1b,2,3,4,1,8,7,6,
5b,4,3,2,1,8,7,6,{8}5,{32}1b/5b,2/6,3/7,4/8,5/1,6,7,8,1,2,3,4,{8}5s1b[1.5789##0.1579],6h[8:1],
{16},6h[8:1],,,6h[8:1],,,6h[8:1],,,{8}6h[8:1],{16},6h[8:1],,,{1}6b,
E
