&title=Sharari
&artist=雄之助
&first=0
&des=Kinhaku
&lv_5=13+
&inote_5=(131)
{16},,,,18,,3,4,2,,2,4,3,5,4,6,5h[8:1],,7,,
{8}2-5[12:1],1,8-5[12:1],1,2-6[12:1],1,8,1,
{16}2b,,6,5,7,,7,5,6,4,5,3,4h[8:1],,1,,
{8}7-4[12:1],8,1-5[12:1],8,7,
{32}8x,7x,6x,5x,4x,3x,2x,1x,
{16}8x/4b,,2,6,3,5h[16:1],4,,2,2,5,5,3,3,7,,18,,2-4[12:1],,
{8}1,8-6[12:1],1,2-5[12:1],1,8-5[8:1],1,
{16}2,,3,,4,,7,1,8,2,7,3,6,,1,,8/1-5[8:1],,,,
{8}1<6[8:1],,1>4[8:1],,1w5[8:1],,1,,27,,
{8}4-6[8:1]/2,3,2-4[8:1],,7-5[8:1],7,1-3[8:1],1,8,,3,2,1/8-6[8:1],,1>4[8:2]/8,,4-8[8:2],,8<5[8:2],,5-1[8:2],,1>5[8:2],,5<1[8:2],,1w5[8:2],,,,,,
{8}5-3[8:1]/7,6,7,7-5[8:1],1,2,3qq4[8:2],7,7V51b[8:2],,,1,2,,3>8[8:1],,7-4b[8:1],,1-5b[8:1],,
{16}1b/8,,7,7,3,,2,4,3,5,1,8,27,,35,,16,,,,
{8}18,,3h[8:2]/5<7[8:1],4,5,,8-6[8:1]/4-2[8:1],,48,,3>1[8:1]/5h[8:2],4,3,,1x-3[8:1]/5x-7[8:1],,15,,8h[8:2]/2>4[8:1],1,2,,
{8}2-4[8:1]/5-7[8:1],,25,,1-5[8:1]/8-4[8:1],,18,,
{8}18,1,12,2,32,3,34,4,45,5,56,6,67,7,8,
{16}1x,8x,
{16}2,4,3,5,4,6,5,7,1,8,1,8,
{32}2x,3x,4x,5x,6x,7,8,1,2bv5[8:1]/6b-1[8:1],,
{16},,,2b/6b,,,,1bx/8bx,,,,
{32}1b,2,3,4,5,6,7,8,1b,,,,
{16}7,,2V41-5[8:2],5,,5,2,,5x,,6-2-5b[6:1],,6,,1x,,8,,8x>4[8:1],7,,7,8x,,6,,6,,45,,
{16}2/7h[8:2],,,,1>4[8:2],,,,4q1[8:2],,,,1>4[8:2],,,,8x,,7,,6x,,5,,1xw5[8:1]/8x,,,,1,,,,
{16}2,4,3,5,18,,2/7,,
{16}1-5[8:1]/8-4[8:1],,36,,18,,,,2,,5,,1-3[8:1],6,,6,1-5[8:1],,7,,1,,8,,1h[8:2],,
{16},,8-6b[8:1],,1-5b[8:1],,8-4[8:1],,1>2>3<4<5<6<7>8[8:3],,8,,1x,,8b<1b[8:4],,,,Chf[8:4],,,,,,,,,,,,
{8}E7/B7/B6/B2/E3/B3,,1h[24:1]/8h[24:1],,
{8}2h[24:1],2h[24:1],1h[24:1]/7<4[8:1]*<4[8:1],,
{8}2v5[8:1],1,8-4[8:1],1,3-1[8:1],2,6-4[8:1],7,1>5[8:2],,
{8}5<1[8:2],,1>5[8:2],,5q1[8:2]*q1[8:2],,1q5[8:2]*q5[8:2],,5V71b[8:2],,1V35b[8:2],,C,,8h[8:2],,
{8}1h[24:1],,3h[24:1],2h[24:1],1h[24:1]/8-4[8:1]*-4[8:1],,
{8}2-6[8:1]/8,1,7-5x[8:1]/2x,8,3-7[8:1]/7,2,3/5-8[8:1],6,5/C,,
{8}1>4[8:1]/5<8[8:1],,1p5[8:1]/5p1[8:1],,1>4[8:1]/5<8[8:1],,1p5[8:1]/5p1[8:1],,1>4[8:1]/5<8[8:1],,1p5[8:1]/5p1[8:1],,15,,2b/7b,,,,,,,,,,,,,,,,,,,,,,,,,,,,,,,,
{8}8,,,,7,,,,6,,,,3,,,,2,,,,1,,,,1b-6b[8:1]/8b-5b[8:1],,1b/8b
,,8b-3b[8:1]/1b-4b[8:1],,1b/8b,,
{32}2bx,3,4,5,6,7,8,1,2-5[8:1]/6v1[8:1],,,,,,,,
{8}2b/6b,,
{16}2,,34,,7,,56,,2V48[8:2],5,,5,2,,7-5[8:1],,6,,7,,1>4[8:1],,,,
{4}1<6[8:1]/5,1w5[8:1]/5,1,
{8}2-4[8:1]/7,1,2/7-5[8:1],8,8xw4b[8:1]/7x,,8x,,
{16}2,4,3,5,18,,2,,1>4[8:1]/8<5[8:1],,7,,18,,,,
{16}2,,5,,1>3[16:1],6,,6,1p5[8:1],,7,,1,,8x,,1x/8hx[8:2],,,,
{8}1p5b[8:1],8<6[8:1],1>3b[8:1],8xq4[8:1],1x,8x,1>2>3<4<5<6<7>8>1[8:2]*>2>3<4<5<6<7>8>1[8:2],
{16},,,,,,,,,,4,5,4,,
{8}1-5[8:1]/8,,7-4[8:1]/1,8,7/3-1[8:1],,
{8}3/6-2[8:1],5,6/1-4[8:1],8,1/7-4b[8:1],8,1w5[8:1]/7,,1b,,
{8}2-4[8:1]/7,,7-3[8:1]/2,8,7/4-1[8:1],,4,8,56,7,34,2,18,
{16}2,4,3,5,4,6,8/1-5[8:1],,,,
{8}1-3[8:1]/7,6,1/5h[8:2],,2,3,47,6,52,3,4-2[8:1]/8-6[8:1],,48,,
{8}18,,4-6[8:1]/2,3,2-4[8:1],,7-5[8:1],7,1V35[8:1]*>5[8:1],,1V75[8:1]*<5[8:1],,1w5b[8:1],,1,,C,,,,,,E
