&title=Got hive of Ra
&artist=E.G.G.
&first=0.24
&des=久仰久仰
&lv_5=14
&lv_6=15
&inote_5=(134)
{328}3qq4[1:1],4pp3[1:1],,,,,,,,,,,,,,,,,,,
{16},,,,,,,,,,,,,,,,,,,,,,,8b>7[4:5],,,,,,,,
{8},,,,,,,,
{16}1h[8:3],,8,,3,,4,2,5,3,7h[8:3],,8,,6,,
4,7,2,6,1,1,3,,2h[8:3],,1,,3,,5,2,7,3,8,8,6,,57,,46,,3,3,5,5,2,,
,,2b-4[12:1],,5-2[12:1],,2,5,,8b,,8-4[12:1],,5,5-8[12:1],8,
6,,5,,,3,6b,,7-5[12:1],7,4-7[12:1],,7,,4,,
,1,1,4-1[12:1],4,,,46,,5,5,2,4,3,1,,1<4[16:7],,4,,3,,2,,1,,8,8b>6[2:1],,,5,,
6,,7,,8,8,1b<3[16:7],,,,2,,3,,2,,
1,1,1>8[2:1],,,,,,,,,,,,1,2,3,,35,,47,,6,1-3[12:1],4,4-8[12:1],,1,,4,2,,
,7,7-4[12:1],3,3-7[12:1],,7,,3,,5-1[12:1],,8,,5,2,,83,,,8,2-6[12:1],7,3,,2,,,
4b-8[12:1],3bqq5[1:1],5bpp3[16:15],,,,,,,,,,,,,,,,,,,,,,
{16}3,4,2,4,3,8,8,2,2,,6,5,7,5,6,,3,3,4,3,4,3,7,7,7,5,6,,
46,,35,,6,5,7,3,4,2,2,,35,,,1/2h[8:1],,8,7,6,4,3,2,7b,
,6,5,7,5,6,1,,3,
4,3,3,4,2,2,4,34,,46,,35,,2,3,4,7,6,5,3,,
6b,5,7,5,6,1,1,7,7,,3,4,2,4,3,,6,6,5,6,5,6,2,5,2,4,3,,
53,,64,,3,4,2,6,5,7,7,,64,,,8/7h[8:1],,1,2,3,7,6,5,2b,
,3,4,2,4,3,8,,6,
5,6,6,5,7,7,5,56,,53,,64,,8,7,6,4,3,2,6,,
2b/6,,1<6[12:1]/7b,1,,5b,,4b-8[8:1],,1bq5[8:1],,4,,1,,
7b,,8>3[12:1]/2b,8,,4b,,5bp1[8:1],,8bp4[8:1],,5,,8,,
2b,,1<6[12:1]*<6[12:1]/7b,1,,4b,,3bq7[12:1],,1bq5[12:1]*v4[12:1],
,3,,1,,,3,6,1,,25,,7,4,5,2,,8,8,3,,
{24}3h,7h,2h,
{16}6h[8:1],,
{10}8b,4b,1b>3[12:1],5b<7[12:1],1,5,4bp8[12:1]*q8[12:1],,4b,,
1b,5b,2b>4[12:1],6<8[12:1],2,6,5bp1[12:1]*q1[12:1],,5b,,
3b,7b,4b>1[12:1],8<5[12:1],4,8,2bV86[8:1]*V46[8:1],,2b,,
{16},,,1,
{24}7,6,5,41,2,3,
{16}4,8,3,6,2,8,3,5,
{24}2h,7h,3h,6b,,,
{16}2h[8:3],,8,,6,,4,,3>8[12:1],,2,6>3[12:1],3,,6,,
{24}8,1,2,4,5,6,2,3,4,
{16}1p5[8:1],,5pp4[4:1],5,,,,3,,1,,
{24}1,2,3,
{16}46,6,,35,2,4,1,3,8,
6h[16:8],,1,,3,3,,,5,6-1[12:1],4,7,3-6[12:1],6,,3,,
{24}1,8,7,5,4,3,7,6,5,
{16}1,1b,4,3,8b,5,6,2Bb,,8b,5,5,1b,4,4,7b,7b,5b,6b,3b,,,
,7b-5[12:1],,4-7[12:1],,7,4,,1b,,1,,4,4-1[12:1],7,
3,,64,,5,5,2b,,2-4[12:1],2,5-2[12:1],,2,,5,,
,8,8,5-8[12:1],5,,,53,,4,4,7,5,6,8,,8>5[16:7],,5,,6,,7,,8,,1,1b<3[16:7],,4,,,
3,,2,,1,1,8b>6[16:7],,8,,6,,6,,7,,
8,8,8<1[2:1],,,,,,,,,,,,8,7,6,,64,,52,,3,8-6[12:1],5,5-1[12:1],,8,,5,7,,
,2,2-5[12:1],6,6-2[12:1],,2,,6,,4-8[12:1],,1,,4,7,,16,,,1,7q3[12:1],2,6,,7b,,,4b<7[12:1],4bqq3[12:1],4b,,,,,,
{10}8b-3[12:1],2b-5[12:1],8,2,7b<1[10:3],6b<1[10:2],5b,,,,
{16},,
{16}3,4,2,4,3,8,8,2,2,,6,5,7,5,6,,3,3,4,3,4,3,7,7,7,5,6,,
46,,35,,6,5,7,3,4,2,2,,35,,,1/2h[8:1],,8,7,6,51,2,3,4/7b,
,6,5,7,5,6,1,,3,
4,3,3,4,2,2,43,,,46,,35,,2,4,1,7,5,8,47,,
3b,
{32}6,4,6,4,
{16}7,5,6,5,5,7,7,3,8,2,
{32}7,,1,,
{16}6,35,,47,,25,5,2,2,4,3,
{32}6,5,6,5,
{16}7,7,1,1,6,2,5,3,
{32}4,,3,5,3,5,2,,
{16}8b,,,
3b/5h[8:1],,,1,4,3,8,5,6,
{32},,3,,
{16}
6,3,7,4,8,8,
3,8,
{32}2,1,2,1,
{16}3,8,,43,,57,,8,8,5,7,1,5,2,8,4,74,,
{16}7b/3,,8>3[12:1]/2b,8,,5b,,6b>3[8:1],,8b,,6,,
7b,,1<6[12:1]/7b,1,,4b,,3bq7[8:1],,1b,,3,,
{10}2b,,
3b-8[20:1],7b-4[20:1],3b,
{25}7b,,1b,2,3/5b,6,
{50}7/1b,2h,3h,4h,5h,,,,,,
{90},
{10}6b-1[20:1],2b-5[20:1],6b,
{25}2b,,8b,7,6/3b,2,
{50}1/8b,7h,6h,5h,4h,,,,,,
{90},
{10}2b,8b,1b,
{25}4b-8[12:1]*-8[12:1],,5bp1[20:10],,3bq7[20:8],,,,,,,
{16},,,,,,,,,,,,,
{50}1b/7b,26,3/5pp4[1:2],4qq5[100:198],
&inote_6=(268)
||kuaipao
{8}3,5,4,6,3,3,4,4,2,2,4,4,
{16}3,5,3,5,
{8}2,5,4,6,3,3,4pp5[4:1],,1,,
3,4,7,2,
{16}6,4,6,4,
{8}3,5,2,6,
{8}1,2,3,4,5,6,7,8,
{16}1,2,3,4,5,6,7,8,
{24}1,2,3,4,5,6,
{8}7b,1,28,3,5,5,1,4,3,1,2,1b,3,8,2,8,1,8,8,1,1,1,28,,
4b,3,6,5,7,7,4,46,5,24,3,5b,4,6,57,5,46,6,1,1b,4,3b,6,5b,7,7,
5-3[8:1],,1-6[8:1],1,,3-1[8:1],,4-6[8:1],,
8-2[8:1],,4-7[8:1],4,,2-4[8:1],,1-7[8:1],,5,5,5-3[8:1],,
7-5[8:1],7,8-2[8:1],,8-6[8:1],,8-4[8:1],,,5-7[8:1],,2-4[8:1],2,,,
7-4[8:1],,8-3[8:1],,,1-6[8:1],,2-5[8:1],,
4b<7[8:1],,8>3[4:1],,3<6[4:1],,7,8,1,2,3,,
5b>2[8:1],,1<6[4:1],,6>3[4:1],,2,1,8,8,
4b<7[8:1],,8>3[4:1],,3<6[4:1],,7,8,1,2,3,,
4,3,2,1,8,7,6,5,
{16}4,3,2,1,8,7,6,5,
{24}4,3,2,1,8,7,6,,,,,,
{8}4-7[8:1],,2-4[8:1],,1-5[8:1],,3-1[8:1],3,,4-6[8:1],,8-3[8:1],8,,
,5-7[8:1],,8-2[8:1],,4-7[8:1],4,,2-5[8:1],,7-3[8:1],,1-5[8:1],,4-7[8:1],4,
,3-1[8:1],,,7-5[8:1],8-4[8:1],7,8,,7-2[8:1],,,5bpp5[2:3],4bpp4[2:3],3b,,,,,,,,,,,,,,7,6,4,3,2/5-8[8:1],,2b,,
3,4,2,4,3,8,8,2,2,35,6,5,7,5,6,6,3,3,4,1,4,3,7,7,7,5,6,5,
46,6,35,3,6,5,7,3,4,2,2,4,3/5<8[8:1],3,2,1b>5[4:1],,8b,7b,6b,4b,3b,2b,7,
,6,5,7,5,6,17,2,3,
4,3,3,4,2,2,4,34,3,46,6,35,3,5b,3b,4b,4b,6b,5b,3,,
{16}6,5,6,5,7,,5,,6,,
{8}1,2,7,8,13,3,4,2,4,3,3,6,6,5,7,1,7,2,8,2,4,34,3,
53,5,64,4,3,4,2,6,5,7,7,5,6/4-1[16:3],6,7,8bV64[4:1],,1b,2b,3b,5b,6b,7b,2b,,
{16}3,4,3,4,2,,4,,
{8}3,8,47,6,
5,6,6,5,7,7,5,56,6,53,3,64,6,8b,7b,6b,4b,3b,2b,6,,
{8}1b<6[8:1]/3,,
{16}5,4,3q7[8:1],2,1,,3,,,,1q5[8:1],,,,6<1[8:1],,,,4-7[8:1]*-6[8:1],,,,4b,,,,
{8}1b<6[8:1],,
{16}5,4,3q7[8:1],2,1,,3,,,,1q5[8:1],,,,1v6[8:1],,,,1-7[8:1]*>4[8:1],,,,1b,,,,
{8}1b<6[8:1],,
{16}5,4,3q7[8:1],2,1,,3,,,,1q5[8:1],,,,6<1[8:1],,,,2-7[8:1]*-5[8:1],,,,2b,,,,
{8}6,5,7,46,,12,,78,7,1,6,2,5b,3,3/4b,,
{12}4,5,63,74,,,
{5}4-6[16:1],7-1[16:1],3-5[16:1],6-8[16:1],
{10}2,3,4,5,6>3[4:1]/1<6[4:1],,,,,,,,
{5}5-3[16:1],2-8[16:1],6-4[16:1],3-1[16:1],
{10}7,6,5,4,3<6[4:1]/8>3[4:1],,,,,,,,
{5}4-6[16:1],7-1[16:1],3-5[16:1],6-8[16:1],
{10}2,3,4,5,6bp2[4:1]/1b<4[4:1],,,,
{20},,,,1,
{100},,
{8},4,3,,
{16}4,3,5,4,
6,7,8h[8:1],,2,3,
{8}47,7,5,6,
{16}4,3,2h[8:1],,6,5,4h[8:1],,8,1,2,3,4/7b,,,,
{8}2qq2[4:1],,2>5[8:1]/4,,7,7,6,6,8<5[8:1],,3>8[8:1],,3,4,
5pp5[4:1],,5>8[4:1],,8<3[4:1],,4,,2-6[8:1],,28,,7-4[8:1],5,7>2[8:1],,7,
,4,4<7[8:1],2,2,3>7[4:1],,7<3[4:1],,2b,1b,8b,7b,
7pp7[4:1],,7<4[8:1]/5,,2,2,3,3,1>4[8:1],1,6<1[8:1],,6,5,
4,,4<7[8:1],,2b,2b,3b,8b,,
7b-4[8:1],1b,7b,2b-8[8:1],5b,2b,
{12}4b,5b,6b,1b,2b,3b,
{8}6b-1[8:1],4b,6b,3b-5[8:1],8b,3b,
7b,7b,1b,5b,,46
,,5-7[8:1],,8-3[8:1],8,,6-8[8:1],,5-3[8:1],,
1-7[8:1],,5-2[8:1],5,,7-5[8:1],,8-2[8:1],,4,4,4-6[8:1],,
2-4[8:1],2,1-7[8:1],,1-3[8:1],,1-5[8:1],,,4-2[8:1],,7-5[8:1],7,,,
2-5[8:1],,1-6[8:1],,,8-3[8:1],,7-4[8:1],,
5b>2[8:1],,1<6[4:1],,6>3[4:1],,2,1,8,7,6,,
4b<7[8:1],,8>3[4:1],,3<6[4:1],,7,8,1,1,
5b>2[8:1],,1<6[4:1],,6>3[4:1],,2,1,8,7,6,,
5,6,7,8,1,2,3,4,
{16}5,6,7,8,1,2,3,4,
{24}5,6,7,8,1,2,3,,,,,,
{8}5-2[8:1],,7-5[8:1],,8-4[8:1],,6-8[8:1],6,,5-3[8:1],,1-6[8:1],1,,
,4-2[8:1],,1-7[8:1],,5-2[8:1],5,,7-4[8:1],,2-6[8:1],,8-4[8:1],,5-2[8:1],5,
,6-8[8:1],,,2-4[8:1],1-5[8:1],2,1,,2-7[8:1],,,4bqq4[2:1],5bqq5[2:1],6b,,,,,,
{10}7b-4[8:1],,3b,,1b-5[8:1],,6b,,6b-2[8:1],,2bw6[4:1],,,,,,,,
{100}4b/7b,,,,,,,,
{8},,,
{16}6,5,6,5,7,,5,,6,,
{8}1,2,7,8,13,3,4,2,4,3,3,6,6,5,7,1,7,2,8,2,4,34,3,
53,5,64,4,3,4,2,6,5,7,7,5,6/4-1[16:3],6,7,8bV64[4:1],,1b,2b,3b,5b,6b,7b,2b,,
{16}3,4,3,4,2,,4,,
{8}3,8,47,6,
5,6,6,5,7,7,5,56,6,53,3,64,6,8b,7b,6b,4b,3b,2b,6,,
3b,
{16}6,4,6,4,
{8}7,5,6,5,5,7,7,38,3,1,
{16}2,,7,,
{8}6,35,3,47,7,25,5,2,2,4,3,
{16}6,5,6,5,
{8}7,7,1,1,6,2,5,3,
{16}4,,3,5,3,5,2,,
{16}8b,7,6,5,,,
3b/5h[8:1],2,1,8,,,
{8}1b,4b,3b,8b,5b,6b,
{16}6,,3,3,
{8}
6,3,7,4,8,8,
3,8,
{16}2,1,2,1,
{8}3,8,,43,3,57,7,8,8,7b,5b,1b,2b,4b,8b,6,71,,{8}8b>3[8:1]/6,,
{16}4,5,6p2[8:1],7,8,,6,,,,8p4[8:1],,,,3>8[8:1],,,,5b,,,,
{8}4b<7[8:1],,
{16}8,1,2p6[8:1],3,4,,2,,,,4p8[8:1],,,,4v7[8:1],,,,4-6[8:1]*>1[8:1],,,,4b,,,
{10},,7b-4[8:1]/8b,,2b,,1b-5[8:1],,6b,
{25},,6,7,8,,4<7[8:1],3,2,1,4b,,,,,,,,,,
{10}2b-5[8:1]/1b,,7b,,8b-4[8:1],,3b,
{25},,3,2,1,,5>2[8:1],6,7,8,5b,,,,,,,,,,
{10}7b-4[8:1]/8b,,2b,,1b,,6b<8[8:1],
{25},,4bpp4[28#2:1],,,,4bqq4[28#2:1],,,,,,,
{200},,,
{16}3,,3,,5,,,,2,,,,17,,1,7,2,6,3,,8,,8,,,,,,,,4b,
