&title=THE CELESTIA 180
&artist=Sobrem ⧸/ Sound piercer "Espitz" Gt.NeLiME
&first=0.5
&des=uapy
&des_5=uapy
&lv_5=14+
&inote_5=(180){4},,,,,,,,,,,,(160){1}4>5<6<7>8>1>2>3<4[2:3],
,6q3q8[4:3],
{4}4,3,2,7-5v8-6[4:3],
{2}7,{4}1,2-4v1-3[4:3],
{2}2,{4}6,{8}7,7,
{2}4-2v1[2:1],{4}6,5-7-1>2-8-6>5[4:5],
{1}5,
{4},Ch[4:7],,,,,,,(180),
{32}1b/8b,7/2,3/6,4/5,,,,,{4}7/2,{16}2,5,3,6,
4,7,{8}3,{32}1b/8b,7/2,3/6,4/5,,,,,{4}7/2,{16}7,4,6,3,
5,2,{8}6,7/1,7/2,7/3,7/4,{16}7x,6,5,4,
1x,2,3,4,7,5,6,5,7,4,5,4,{4}8h[8:1],
{16}4/8,7/3,6/2,5/1,{8}4/8-4[8:1],8,8/6-2[8:1],6,6/3-8[8:1],3,
3/5-1[8:1],5,{32}5/1,2,3,4,,,,,2/8,7,6,5,,,,,1w5[8:1],2/8,3/7,6/4,,,,,,,,,,,,,{16}3,
7,2,8,{24}2,3,4,7,6,5,{16}2,7,1,8,
{24}2,3,4,7,6,5,{12}2,4,3,8,5,6,{96}4b,,,3,,,{32}2,1,8,7,6,5,
{4}4b/8b,{16}6,4,{8}6,{16}3,5,{8}3,7h[4:1],{16}5,4,
3,2,{8}1,{24}7,6,5,1,2,3,8,7,6,2,3,4,{8}5b/1b-5b[8:1],7b/3b,
{16},,,,7,5x,{8}7,{16}2,4x,{8}2,{16}6,4,6,4,
5,3,5,3,7b,2b,5b,3b,7b,1b,6b,4b,{4}8b-4b[8:1],
{16},,,,3,5,3,6,3,7,3,6,2,5,1,4,
{4}8-2-4-6[8:3],{16}4,,,6,,,{8}8h[4:1],,1,
{4}3/7,{16}6,4,6,3,6,2,6,3,7,4,8,5,
{4}1V75v8[8:3],{16}5,,,3,,,{8}2h[4:1],,1,
{4}7/3,{16}4,6,4,6,3,5,3,5,{8}1-5[8:1],2,
8/1,7,{16}4,6,4,6,3,5,3,5,{8}4V28[16:3],3/5,
4,6,{16}7,1,7,1,6,2,6,2,5,3,5,3,
6,4,6,4,7b-3[16:1],,,5b-2[16:1],,,{8}1b-6[16:1],{16},4b-1[16:1],,,{8}5b,
6b,{16}7,1,7,2,7,3,7,4,7,3,6,2,
{4}5-1-7-3[8:3],{16}1,,,3,,,{8}5h[4:1],,1,
{4}7/3,{16}2,8,2,7,2,6,2,5,2,6,3,7,
{4}4-8-2-5[8:3],{16}5,,,7,,,{8}8xh[4:1],,5x,
{16},6x/4x,,,3,5,3,5,3,5,3,5,1,7,1,7,
1,7,1,7,2,6,2,6,2,6,3,7,3,7,3,7,
4,6,4,6,3,2,1,8,5,6,7,8,2,3,4,5,
8,7,6,5,3x,3,4,2,6x,6,5,8,{8}4<6-8[8:1],8x>2-4b[8:1],
,,{4}6bxh[4:7],,,,,,,,4<4[8:9]*z8b[16:9],
,,,,,B5h[4:1]/E6h[4:1]/E5h[4:1],
{12},,,E7,B5,A4,E8,C,E4,A8,B1,E3,
E8,C,E4,E7/A7/B7,A4,E6,E3/A2/B2,A5,E4,C,,,{4}4x,
{12}6,7,8,4,3,2,7,6,5,
1,2,3,6,7,8,1,2,3,4x/Ch[4:1],{24},,,,,,,,,,2b,
3,4,7,{48},{16}1,{24}7b,6,5,2,{48},{16}8,{24}2b,3,4,7,{48},{16}1,
{24}7b,6,5,2,{48},{16}8,{24}2b,3,{48}4,,,,,8,,,{4}8xh[4:1],{16}3,4,5,6,
7,8,1,2,{24}6b,5,4,2,{48},{16}1,{24}3b,4,5,7,{48},{16}8,{24}6b,5,4,2,{48},{16}1,
{24}3b,4,5,7,{48},{16}8,{24}6b,5,{48}4,,,,,1,,,{4}1xh[4:1],{16}5,4,3,2,
1,8,7,6,{4}5/1xh[1:1],A6/B6/E6,E4/D4/A3,
A5/E5/D5,{12}7b,7,7,2b,2,2,{24}8b,7,6,5,4,3,
2b/7b,6,5,4,3,2,{4}1b/7bh[4:1],{16}1,7,3,7,1,7,3,7,
2,8,4,8,4x,3,8x,7,3x,2,7x,6,1,2,3,4,
1-5[8:1],8,7,6,,,,,7,4,5,4,7,4,5,4,
6,3,4,3,{32}5,6,7,8,1,2,3,4,5,6,7,8,1,2,3,4,{4}5bw1[8:1],
5b,{8}7/3,{16}8,4,{8}6,8,5/3,{16}1,4,
{8}3,1,{16}6,5,2,3,6,5,2,3,7,6,3,4,
7,6,3,4,{8}6x/5x,{16}8,5,{8}6,8/2,4/3,{16}1,4,
{8}3,1/7,{24}2,3,4,7,6,5,2,3,4,7,6,5,{12}1,1,1,
5,5,5,3x/5x,{48},,{16}2,6,{8}4,1/8,6/4,{16}7,3,
{8}5,8/1,{16}2,3,4,5,8,7,6,5,1,2,3,4,
5,6,7,8,{8}1/5,{16}2,4,3,4,{8}1,8,{16}7,5,
6,5,{8}8,{32}7b,6,5,4,3,2,1,8,7,6,5,4,3,2,1,8,3b/7b,4,5,6,7,8,1,2,
3,4,5,6,7,8,1,2,{16}3b/7b,,,6/4,4/6,,,5/3,,6/2,,2/6,
,8/4,,3/7,{4}7/3,{12}2,2,2,6,6,6,
4,4,4,7b,5,6,2b,4,3,8b,5,6,
1b,3,4,6x,6,4,3x,3,5,4x,6,8,
5x,3,1,5b-8v2-4-7-1V36[1:2],{1},,,{4},,,{6},{4}1w5b[2:7],
,,,,,,,,,,,,,,,5/3h[1:1],
,B4/E4/A4,
B1/E2/B2,7h[4:3],E6/B5/B6,A8/B8/E8,
{8}1,1,{4}8b/2hb[4:1],{16}8,7,6,5,1,2,3,4,
7,6,5,4,{24}1,2,3,7,6,5,2,3,4,8,7,6,{32}3x,4,5,6,7,8,1,2,
6x/3x,5,4,3,2,1,8,7,{4}6x/3xh[4:1],{16}5,3,5,3,6,2,6,2,
5,1,5,1,{24}4bx,8bx,4bx,8bx,4bx,8bx,4bxv7-5b[4:1],8bxv3-1[24:5],4bx,8bx,4bx,8bx,{4},,{32}2b/5b-1[8:1],
6/3,7/4,8/5x,,,,,1b,8,7,6,,,,,2b/5b-1[8:1],6/3,7/4,8/5x,,,,,1b,
8,7,6,,,,,2b/5b-1[8:1],6/3,7/4,8/5x,,,,,1b,8,7,6,,,,,2b,3,4,5,6,7,8,1,
{4}2b/6b,{16}7b,1,7b,2,7b,3,7b,4,{4}8b<5b[8:1],
{32}4b,3,2,1,{96},,,,,,,,,,,,{24}4b,3,2,1,8,7,6b/2b,3,4,5,6,7,{4}8bw4b[8:1],
8b,{16}2b,6,2b,6,2b,5,2b,4,1b,5,1b,6,
{24}1b,2,3,5b/4b,{48},,,,{16}6b,4,5,3,7b,4,6,3,{4}8bh[4:1],
{8}4,6/2,{24}3x,5x,3x,5x,3x,5x,{16}2,6,2,6,{24}1b,2,3,7,6,5,
8b,7,6,2,3,4,{32}1b,2,3,4,5,6,7,8,1b,2,3,4,5,6,7,8,1b/E5,E4,E3,E2,E1,E8,E7,E6,
{4}Cf,{16}1b,5,1,5,2b,4,2,4,3b,5,3,5,
1b,8,5b,6,4b,7,4,7,2b,1,2,1,3b,8,3,8,
4b,7,2b,5,1b,6,2b,7,3b,8,{8}4b,{32}1b,2,3,4,5,6,7,8,
{4}1b/5b,{16}3bh[16:1],8h[16:1],5h[16:1],6h[16:1],2bh[16:1],7h[16:1],4h[16:1],5h[16:1],{32}3b-7b[8:1],2,1,8,7,6,5,4,
{4}3b,{16}1b,5
,1,5,2b,6,2,6,3b,7,3,7,
4b,6,3,5,2b,4,2,4,3b,5,3,5,4b,6,4,6,
3b,7,2b,8,{8}1bxh[8:3],{16}2,3,4,5,6,7,8x/1x,2,3,4,
5,6,7,8,{32}1x/D7,D6,D5,D4,D3,D2,D1,D8,E7,E6,E5,E4,E3,E2,E1,E8,{4}E7/Cfh[8:1],
,8b/1b,{16}7/5,5/7,,6/4,,5/3,,2/4,
{4}4/2,8b/1b,{16}2/4,2/4,,3/5,,4/6,,7/5,
{4}5/7,8b/2b,{16}7/B3,7/B3,,6/B2,,5/B1,,4/B8,
{4}4/B8,2b/6b,{16}1/7,7/1,,8,,1,7,1,
{32}6bx,5,4,3,2,1,8,7,{4}6b/4bz8[16:3],{8}6,7-3[8:1],,1,
{16},,2,2,{24}4x,5,6,7x/8x,1,2,3x/4x,5,6,7x/8x,1,2,3x/5x,6,7,8x/1x,2,3,
4x/5x,6,7,8x/1x,2,3,{4}4x/6xz2[16:3],{8}4,5-1[8:1],,8,
{16},8,7,6,{32}5x/2bx,3,4,5,6,7,8,1,2,3,4,5,6,7,8,1,2bx/5bx,4,3,2,1,8,7,6,
5,4,3,2,1,8,7,6,{4}5bx/Cf,{16}1,1,,8/2,,8/2,,6/4,
,5/3,,6/2,{4}7/3,{12}8,8,8,4,4,4,
6,6,6,2,2,6,8,8,5,3,3,7,
5,5,1,8/4,4/8,4/8,7/3,3/7,7/3,6b/2b,6b/2b,6b/2b,
6bx/2bx,6bx/2bx,6bx/2bx,2bx-5-3-1[4:3]/6bx-1V75b[4:3],{1},{4},,,{6},{12}5x,
6x,7x<8pp5[12:37],
E
