&title=Felis
&artist=M2U
&first=-0.497
&des=GRandAKA
&des_5=Akarizu (GC ver)
&lv_5=14
&inote_5=(155){16},,,,,,,,,,,,,,,,{8}2h[4:1]/4h[16:3],
,,3h[16:3]/5h[4:1],,,{4}6h[4:1]/4h[16:3],
{8},5,4/6,3/7,2>5[0.3871##0.1935]/8<5[0.3871##0.1935],,,,6h[4:1]/1h[4:1],
,,3h[4:1]/8h[4:1],,,{4}2h[4:1]/7h[4:1],
{8},,2/7,4/5,,6/4,{4}8b/Cf,
{16}4,6,3,5,{8}2h[8:1],4,6h[8:1],5,3h[8:1],4,
7h[8:1],5,4,3,2h[4:1],{16},,,,3,4,
{8}3,{16}2,1,{8}2,{16}3,4,{8}3,{16}2,1,{8}2,2h[8:1],
{16}8,3,7,4,6,3,5,2,{2}4-8[8:1],
{16}3,1,2,8,{8}1h[8:1],7,3h[8:1],5,4h[8:1],6,
{16}5,7,4,6,{8}3h[8:1],5,1h[8:1],7,3h[8:1],5,
5xh[2:1],{16}E5,E6,E7,E8,{8}E1,3xh[2:1],{16}E5,E4,E3,E2,{8}E1,
{4}6xh[4:1],{16}2,5,4,7,{8}1b,5b/4b,{4}7b/2b,
{8}4x/6x,{16}3,5,{8}2h[8:1],4,2/4,{16}5,3,{8}6h[8:1],4,
4/6,{16}3,5,{8}2h[8:1],4,{4}3h[8:1]/5h[8:1],6h[8:1]/2h[8:1],
{8}1x/7x,{16}2,8,{8}3h[8:1],1,3/1,{16}8,2,{8}7h[8:1],1,
1/7,{16}2,8,{8}3h[8:1],6,1h[8:1],{16}5x,3x,{8}7x,4,
3x/5x,{16}6,4,{8}7h[8:1],5,7/5,{16}4,6,{8}3h[8:1],5,
3/5,{16}6,4,{8}7h[8:1],5,{4}6h[8:1]/4h[8:1],7h[8:1]/3h[8:1],
{8}2x/8x,{16}7,1,{8}6h[8:1],8,6/8,{16}1,7,{8}2h[8:1],8,
2/8,{16}7,1,{8}7h[8:1],8,1/7,{16}8b,8b,{4}8b,
{1}1x>1[1:2],
,1>1[1:2],
{2},,1>5[1:1],
C,
5<1[1:1],C,
1>5[4:3],C,
{4}8h[8:1],7h[8:1]/1h[8:1],6h[8:1]/2h[8:1],5h[8:1]/3h[8:1],
{32}4x,5,6,7,8,1,2,3,4x,5,6,7,8,1,2,3,{4}4xw8[8:1],4b,
{8}3/5,{16}4,4,{8}4,3/5,{16}4,4,{8}4,{16}1x/7x,2,3,4/5,
6,7,8x/2x,3,4,5/6,7,8,2x>5[8:1],1,2,1,{4}2b,
{8}4/6,{16}5,5,{8}5,6/4,{16}5,5,{8}5,{16}8x/2x,7,6,5/4,
3,2,1x/7x,6,5,4/3,2,1,7x<4[8:1],8,7,8,{4}7b,
{8}8/2,{16}1,1,{8}1,2/8,{16}1,1,{8}1,8/2,3/7,
{16}5x,3,4,3,6x,4,5,4,7x,5,6,5,{4}8b,
{8}1/7,{16}8,8,{8}8,7/1,{16}8,8,{8}8,{16}1x,7,8,6,
5x,7,4,6,3x,5,2,4,{32}E1,E8,E7,E6,E5,E4,E3,E2,{4}E1/Cf,
{8}7h[4:1]/5h[16:3],,,6h[16:3]/4h[4:1],,,{4}3h[4:1]/5h[16:3],
{8},4,5/3,6/2,{2}7<4[8:1]/1>4[8:1],
{8}3h[4:1]/8h[4:1],,,6h[4:1]/1h[4:1],,,{4}7h[4:1]/2h[4:1],
{8},,7/2,5/4,,3/5,{4}1b/Cf,
{8}8/2,1,{16}8-4[8:1],7,6,5,{8}4x/8>4[8:1],6,8/7,5,
1/7,8,{16}1-5[8:1],2,3,4,{8}5x/1<5[8:1],3,1/2,4,
2/8<5[8:1],7,{16}8/1-5[8:1],2,{8}3,7/1>4[8:1],6,{16}8/1,7,{8}6,
3,6,{16}2,7,4,5,{4}1,3x/6x,
{16}3,4,3,4,{8}3,{16}6,5,6,5,{8}6,{16}2,4,2,4,
{8}2,{16}7,5,7,5,{8}6,{64}4,5,,,,,,,{8}3,4,5,
1x/6x,{16}7,8,7,8,{8}7,3x/8x,{16}2,1,2,1,{8}2,
8x/1x,7/2,{32}1x,2,3,4,5,6,7,8,{8}1b,5b/4b,{4}7b/2b,
{8}2/5,{16}3,4,{8}3,2/5,7/4,{16}6,5,{8}6,4/7,
2/5,{16}3,4,{8}3V51[4:1],5/2,{4}6h[8:1],6h[8:1],
{8}7/4,{16}6,6,{8}5,7/4,2/5,{16}3,3,{8}4,5/2,
7/4,{16}6,6,{8}5V38[4:1],4/7,{4}6h[8:1],6h[8:1],
{8}3/8,{16}2,1,{8}2,3/8,6/1,{16}7,8,{8}7,1/6,
3/8,{16}2,1,{8}2V84[4:1],8/3,{4}7h[8:1],7h[8:1],
{8}6/1,{16}7,7,{8}8,6/1,3/8,{16}2,2,{8}1,8/3,
6/1,{16}7,7,{8}8,1/6,8/2,{16}1b,1b,{4}1b,
{1}8x<8[1:2],
,8<8[1:2],
{2},,8<4[1:1],
C,
4>8[1:1],C,
8<4[4:3],C,
{8}3,3,6,6,{16}1,8,2,7,3,6,4,5,
{1}4b>4[2:1]*<4[2:1],
{8}3/6,{16}4,4,{8}5,6/3,{16}4,5,3,5,4,6,4,5,
3,5,4,6,3,5,4,6,4,5,3,6,4,5,{8}4,
7/2,{16}1,1,{8}8,7/2,{16}1,8,2,8,1,7,1,8,
2,8,1,7,2,8,1,7,{8}2,{16}8,4,{4}2b/6b,
{32}8xh[4:1]/2xh[4:1],,,,,,,,,3/7,4/6,5,,,,,{4}7b/3b,{16}6,4,6,4,
{8}7h[8:1],{16}5,6h[8:1],,4,{8}5h[8:1],{16}3,4h[8:1],,2,5,3,{8}4,
{32}1xh/7xh,6/2,5/3,4,,,,,{4}2b/6b,{8}4h[8:1],{16}6,3h[8:1],,5,{8}2h[8:1],
{16}8,1h[8:1],,7,2,5,4,8,1,6,3,7,2,5,4,8,
{4}1xh[4:1],{16}5,3,6,4,{8}7h[8:1],{16}3,5,2,4,{8}1h[8:1],
{16}6,4,7,5,{8}8h[8:1],{16}1,8,2,7,3,6,4,5,4,5,
{8}7b/2b,{16}3,4,{8}3,2b/7b,{16}6,5,{8}6,7b/2b,{16}3,3,
{8}4,7b/2b,{16}6,6,{8}5,{16}4,5,3,6,2,7,1,8,
{8}2h[2:1],{16}E6,E7,E8,E1,E2,E3,{8}E4,{16}4,4,{8}5,3/6,
8h[2:1],{16}1,2,3,4,5,6,{8}7x,1/8,2/7,3/6,
{16}1b,6,2,5,3,4,3,3,8b,3,7,4,6,5,6,6,
1b,8,2,7,3b,6,4,5,{32}4b,5x,6x,7x,8x,1x,2x,3x,{4}5<4[1:3]/4>5[1:3],
,,,,,,,,,,,,,,,E7/E3/B2/B1/B8/B7/B6/B3/Ch[64:1],
E
