&title=Ou Festen EPITORICA
&artist=sasakure.UK
&first=0.07
&des=Dororo
&lv_5=12+
&inote_5=(146)
{1},
{16}
,,,,,,,,,,,,,,{24}2,3,4,
{16}
5h[8:7]/6h[16:3],,,,,,6h[16:3],,,,,,7,,7h[8:7],,
6h[16:3],,,,,,6h[16:3],,,,,,3,,3,,
4h[8:7]/3h[16:3],,,,,,3h[16:3],,,,,,2,,2h[8:7],,
3h[16:3],,,,,,3h[16:3],,,,,,8,,8,,
8-4[8:1],,,,1^6[8:1],,,,5h[4:1],,,,3,,4,,
3,,2,,1^4[8:1],,,,5h[4:1],,,,3,,,,
1-5[8:1],,,,8^3[8:1],,,,4h[4:1],,,,5,,6,,
7,8,7,8,,,2,1,2,1,,,3b/6b,,,,
4^2[8:1],,5,5,,,4^6[8:1],,3,3,,,2,,1,,
8-3[8:1],,7,7,,,8-5[8:1],,1,1,,,2h[4:1],,,,
4^7[8:1],,3,3,,,4^1[8:1],,5,5,,,6,,7,,
8V61[16:3],,4,4,,,3,,2,1,2,1,38,3b/8b,,,
5^7[8:1],,4,4,,,5^3[8:1],,6,6,,,7,,8,,
1-6[8:1],,2,2,,,1-4[8:1],,8,8,,,7h[4:1],,,,
5^2[8:1],,6,6,,,5^8[8:1],,4,4,,,2,,2,,
1b/2b,,,5b/7bq6[16:5],,,1b/4bv1[8:1],,,,,,,,,,
3h[1:1],,,,{32}7,6,5,,{16},,,,,,,,,,
7h[1:1],,,,{32}1,2,3,,{16},,,,,,,,,,
1h[1:1],,,,{32}6,5,4,,{16},,,,,,,,,,
6pp5[2:1],,,,{32}8,1,2,,{16},,,,,,,,,,
3,,,,{32}8-5[4:1],7,,,{16},,{32}2,3,4h[32:14],,{16},,,,,,
6,,,,{32}2-6[4:1],1,,,{16},,{32}7,6,5h[32:14],,{16},,,,,,
3,,,,{32}7-4[4:1],6,,,{16},,{32}1,2,3h[32:14],,{16},,,,,,
{32}5-8[4:1],6,7,,{16},,,,,,{32}4-1[4:1],3,2,,{16},,,,,,
7,,7h[4:1],,,,8,,8q5[4:1],,,,5qq1[2:1],,,,
6,,7,,8h[4:1],,,,,,,,17,,,,
2,,2h[4:1],,,,1,,1p2[4:1],,,,2<5[8:3],,,,
4,,4,,3,,2,,1,,,,28,,,,
4V63[4:1],,4,,6h[4:1],,,,,,,,6,,7,,
8>4[4:1],,,,4<8[4:1],,,,8,,,,,,2,1,
2,,4,,3,,5,,4h[4:1]/6h[4:1],,,,,,7,8,
7-3[8:1],,,,73,,,,1-6[8:1]/2-4[8:1],,,,12,,,,
5b,,3pp4[4:1],,7V16[4:1],,3,,7,,,,2h[4:1],,,,
4,,35,,35,,2,1,2,,8,8,,17,,26,
,,{32}5,6,{16},,,7,8,7h[16:3],,,3h[16:3],,,5,,
45,,2,2,,13,,48,,5,6,4,5,3,4,2h[8:1],
,1,1h[8:1],,8,8h[8:1],,7,7h[8:1],,5,5h[8:1]/6h[8:1],,,2h[8:1]/4h[8:1],,
,1h[8:1]/6h[8:1],,,3h[8:1]/7h[8:1],,,1h[16:1]/5h[16:1],,2h[24:1]/6h[24:1],,3h[32:1]/7h[32:1],,4h[64:1]/8h[64:1],,1h[128:1]/5h[128:1],
,{32}3,4,{16}3,,25,2h[8:1],,7h[8:1],,4h[8:1],,1h[8:1],,3h[8:1],,6,
5,6h[8:1],,8h[8:1],,1h[8:1],,5h[8:1],,7h[8:1],,2h[8:1],,5,45,,
3bqq7[2:3]/6b,,6,,5,,5,,6,,,,5,,5,,
4,,4,,5,,,,4,,4,,5,,5,,
6pp1[2:3]/2,,2,,3,,3,,2,,,,3,,3,,
4,,4,,3,,,,4,,4,,3,,3,,
1/2-6[8:1],,2,,7^2[8:1],,7,,5h[4:1],,,,4-8[8:1],,4,,
2^5[8:1],,2,,7h[4:1],,,,4,,6,5,7,5,6,,
8/7-3[8:1],,7,,2^7[8:1],,2,,4h[4:1],,,,5-3[8:1],,5,,
6-2[8:1],,6,,8,,8,,1,1,1,1,1b-5[8:1],,,,
1<3[1:1],,,,,,,,,,,,,,,,
3pp6[1:1],,,,,,,,,,,,,,,,
6>8[1:1],,,,,,,,,,,,,,,,
8p3[2:1],,,,,,,,,,,,,,,,
2^5[4:1],,,1,,,8,,8^3[4:1],,,7,,,6,,
6^1[4:1],,,5,,,4,,4^7[4:1],,,3,,,2,,
2-4[8:1],,,1,,,8,,7-5[8:1],,,8,,,1,,
3,3,4,,25,,7,1,8w4[8:1],1,7,,8b,,,,
7<4[8:1],,,4,,,1,,2,3,2,4-8[8:1],,2,2,,
3>8[8:1],,,8,,,5,,6,7,6,8>3[8:1],,7,7,,
5h[16:3],,,4h[16:3],,,3h[8:1],,2>5[8:1],,,,25,,6-2[8:1],,
,,1,,1,,18,,8-4[8:1],1,7,1,,,,,
2>5[8:1],,,5,,,8,,7,6,7,5-1[8:1],,7,7,,
6<1[8:1],,,1,,,4,,3,2,3,1<6[8:1],,2,2,,
4h[16:3],,,6h[16:3],,,8h[8:1],,1,,3,4,,7,6,,
3,8b,2,1>6[8:1],3b,8,2h[4:1],,,,7b-3[16:1],,,3b,,,
1b,4,3,4,2,5,4,5,{32}1b,2,3,4,5,,8b,1,2,3,4,,7b,,,,
{16}5b-8[8:1]/1,,,,2b/5b-2[8:1],,,,8b/5bw1[8:1],,,,5b,,,,
3b,4,3,6,5,6,1,8,2,4,3,5,4,6,5,7,
3,5,4,6,1,8,2,6,5,7,3,4,2,2b,,,
8b,5,6,5,7,4,5,4,{32}8b,7,6,5,4,,1b,8,7,6,5,,2b,,,,
{16}4b^1[8:1]/8,,,,7b/4b^7[8:1],,,,1b/4bw8[8:1],,,,4b,,,,
8h[8:1]/2h[8:1],,,6h[8:1]/4h[8:1],,,23,,17,,6,5,,2,3,,
1,8b,6,7,4b,5,2,3,1bv2[8:1],8v7[16:1],27,,8b>6[4:7]/1b,,,,
5b>7[4:6],,,,,,,,,,,,,,,,
,,,,,,,,,,,,,,,,
3h[4:1],,4,,4V25[4:1],,,,5-1[8:1],,,6,,,6,,
7h[4:1],,5,,5V74[4:1],,,,4-8[8:1],,,3,,2,2,,
1h[4:1],,3,,3V15[4:1],,,,5v8[8:1],,,7,,,6,,
5h[4:1],,8,,8V61[4:1],,,,1v4[8:1],,,2,,3,3,,
4h[4:1],,1,,1V74[4:1],,,,2,,,3,,,3,2,
1b-3[12:1]/5b-7[12:1],,,,5b/1b<6[8:1],,,,1b-5[8:1]/4b>1[8:1],,,,1b/4bw8[8:1],,,,
4b,,,,6,,6-1[8:1],5,,5,6,,4,,4,,
6,5,7h[8:1],,3,,5,4h[8:1],,3,4,,8b,8b,8b,8b,
3,4,2h[8:1],,6,,6-1[8:1],5,,5,6,,4,,4,,
6,5,7h[8:1],,3,,5,4h[8:1],,3,4,,8,1b/7b,,,
7,8,6h[8:1],,5,,4<7[8:1],6,,2,4,,1,8,1,,
2,1,3h[8:1],,7,,4,5h[8:1],,6,5,,1b,1b,1b,1b,
7,8,6h[8:1],,5,,4<7[8:1],6,,2,4,,1,8,1,,
2,1,3h[8:1],,7,,4,5,2b,2b,4,2,1b>4[8:1]/5b<8[8:1],,26,,
5bqq6[1:2]/1bqq2[1:2],,,,,,,,,,,,,,,,,
,,,,,,,,,,,,,,,,
,,,,,,,,,,,,,,,,
,,,,,,,,,,,,,,,,
,,,,,,,,,,,,,,,,
E
