&title=不死身ごっこ
&artist=ピノキオピー
&first=0.195
&des=不死身
&lv_5=13+
&inote_5=(147)
{24}A4h[4:1]/E4h[16:5]/E5h[8:3]/B4h[16:7],,,,,,,,,,,,8,,,E8,E7,E6,E5,,,1,,,
{24}1,,,E2,E3,E4,E5,,,8,,,2/6,,,D3,D4,D7,D6,,,1h[8:3],,,
{24}A5h[4:1]/E6h[16:5]/E5h[8:3]/B5h[16:7],,,,,,,,,,,,1,,,D2,D3,D4,D5,,,8,,,
{24}8,,,D8,D7,D6,D5,,,1,,,2b/6b,,,,,,5-1[8:1]/7^4[8:1],,,,,,
{8}5/7,,2/3h[64:1],,3/5,6,7/5h[64:1],,
{8}2/4,5,1-5[8:1]/6h[64:1],,1/3,,2-6[8:1]/8^3[8:1],,
{8}2/8,,4/5h[64:1],,3/5,6,7/5h[64:1],3,
{8}2/8,7,6h[64:1]/4,3,2/7,,E2h[4:1],E8h[8:1],
{16}C,,,,4/5,,3,4,2,1,3,8,2,,2/7,,
{16}6,5,7,8,6,,2,1,3,4,2,,5/1,,,,
{16}4/6,,3,,2-5[8:1],1,,1,2,,6,,3,4,2,5,
{32}1b,,6,,5,,6,,8b,,6,,5,,6,,8b,1,2,3,4,5,6h[4:1]/E1fh[16:5],,,,,,,,,,
{48}E6,B5,B4,E4,,,,,,,,,2,,,2,,,8,,,8,,,A1h[8:1]/B1h[6:1]/E1h[24:5]/E2h[4:1],,,,,,7,,6,,5,,4,,,,,,7,,,,,,
{24}A2h[8:1]/B2h[6:1]/E2h[24:5]/E3h[4:1],,,8,7,6,5,,,8,,,A3h[8:1]/B3h[6:1]/E3h[24:5]/E4h[4:1],,,1,8,7,6,,,4x/5x,,,
{48}2h[4:1]/7,,,,,,,,,,,,8,,,8,,,1,,,1,,,A7h[8:1]/B7h[6:1]/E8h[24:5]/E7h[4:1],,,,,,1,,2,,3,,4,,,,,,1,,,,,,
{24}A8h[8:1]/B8h[6:1]/E1h[24:5]/E8h[4:1],,,2,3,4,5,,,2x,,,3x-8[8:1]/7x-4[8:1],,,,,,,,,,,,
{16}3,3h[8:1],,5pp8[16:5],,4/6,,3/5,3,,1,2,3pp2[16:5],,,,
{16}3/6,,7,7,,8,8,1,7-3[8:1],8,6,1,7,,,,
{16}2,,2,4,,4,3,3,5-1[8:1],5,3,7h[16:5],5,,,,
{8},2^7[8:1]/8,3,4,5^2[8:1],6,7,8-4[8:1],
{8},7/8,6^1[8:1],5,4,3,2,1h[8:1],
{16}8,,1h[8:1],,7,7,2,2,1x/8x,1x/8x,1x/8x,1x/8x,2-5[8:1]/7-2[8:1],,,,
{4}7b/2b<4[8:1],3-7b[8:1],1/3x,2-4[8:1]/6-2[8:1],
{16}2b<4[8:1]/6b,,,,3-7b[8:1],,,,1/3x,,,,2/8,3,4,5,
{8}6p2[8:1]/7,5,6/8-4[8:1],7,8/2-5[8:1],1,2/7-3b[8:3],6,
{4}7h[8:3],,1b/B1f,4-1[8:1]/7-4[8:1],
{4}4b<2[8:1]/7b,3-8b[8:1],3x/5,2q6[8:1]/6q2[8:1],
{4}6>8[8:1],7-3b[8:1],5/7x,6/2^5[4:1],
{4}5^8[4:1],8pp3[8:3],4^7[8:1],,
{16}4,6,4,,5,3,5,,4,6,3,5,1b,,,,
{16}3/7,,4,4,6-1[8:1],,2-5[8:1],,6,,2,,8v3[8:1],,,,
{16}8x/2x^5[8:1],,,,2xV86[4:1],,,,6,5,4,3,2b,,,,
{16}2/6,,7,7,5-2[8:1],,8-5[8:1],,5,,8,,1-5[8:1],,,,
{16}1x/7xp3[8:1],,,,7x>3[4:1],,,,3,4,5,6,7b,,,,
{4}4-8[8:1]/5-1b[8:1],4x/5x,2-5b[8:1]/7-4[8:1],2x/7x,
{16}1/8,,2,4,3,6,5,7,1x/8x,,,,2^7[4:1],,2,,
{1}7pp2[4:3],
{8}6h[4:1],,5-2[8:1],7-4[8:1],5,7,8-3b[16:1],6,
{8}8x,,7-2[8:1],5-2[8:1],7,5,3-7b[16:1],1,
{8}3x,,2-5[8:1],8-3[8:1],2,8,6-3[8:1],1-6[8:1],
{8}6,1,2-6b[16:1],4,2x,,4,3/5,
{16}2,6,2,6,3,5,3,5,4,6,3,7,1h[4:1],,,,
{16}8,2,8,2,7,,3,5,3,5,2,,1/8,,,,
{16}2,8,3,7,1,5,3,7,5,1,4,8,2^5[8:1],,,,
{8}5,6,7,8h[4:1],4,3,2p2[1:1],6p6[8:7],
{1},
{8},,,B6h[2:1],,,,,
{16}3,5,3,5,2,6,2,6,3,7,3,7,4,6,5,5,
{16}6,4,6,4,7,3,7,3,6,2,6,2,5,3,4,,
{16}1/8,,2,4,3,7,5,6,2,4,3,7,1,5,3,7,
{32}2,,6,,2,,6,,3,,5,,4,,6,,3,,7,,2,,8,,1x,2,3,4,5x/8x,7,6,5,
{8}1x^4-6[4:1]/4x,,6-2b[16:1],7,8,,8,7,
{8}5-2^8[4:1]/6,,8-4b[16:1],7,6,,6,7,
{16}8,8h[8:1],,4,4h[8:1],,1,1h[8:1],,5,5h[8:1],,{24}2s6[8:3],1,8,7,6,5,
{24}4/2,,,,,,,,,,,,7,8,1,2,3,4,5b/6b,,,,,,
{4}6h[2:1]/B3h[8:3]/B4h[16:7],,,3h[4:3],
{4}B6h[8:3]/B5h[16:7],,,2^4^6[2:1],
{4}4,6^1^4[2:1],1,4qq5[2:1],
{2},B7f,
{2}7s3[2:1]/1h[8:3],8,
{2}1s5[2:1]/5h[8:3],7,
{4}8-3[8:1],1-6[8:1],7-4[8:1],2-5[8:1],
{16}E6,E7,E8,,E4,E3,E2,,8,1,8,,2^5[8:1]/7^2[8:1],,,,
{4}7b/2b-6[8:1],5-1b[8:1],5x/3,2^5[8:1]/8^5[8:1],
{16}2b-8[8:1]/8b,,,,7-3b[8:1],,,,5/7x,,,,5-3[8:1],6,7,8,
{8}1-5[8:1]/5,8,1/3^8[8:1],2,3/7p3[8:1],6,5<3b[8:3]*-7-1-3[8:3]/7,4,
{4},,8b/B8f,1q6[8:1]/5q2[8:1],
{4}1b<4[8:1]/5b,3-7b[8:1],1/3,2-6[8:1]/6^3[8:1],
{8}2b/6b<3[8:1],,4z8b[8:1],,4/5,,2/7,3/6,
{4}4h[4:1],7h[4:1],2h[4:1],4h[4:1],
{32}5,,4,,5,,4,,5,,4,,5,,4,,6-2[8:1],7,8,1,2,3,4,5,6/8b,,,,,,,,
{16}3/7,,6,4,5-8[8:1],,5-2[8:1],,5,,,,6-1[8:1],,,,
{16}6x/3x^6[8:1],,,,2xV86[4:1]/3x,,,,6,5,4,3,2b,,,,
{16}1/7,,2,6,4-1[8:1],,7-4[8:1],,4,,7,,8v3[8:1],,,,
{16}8x/5xq1[8:1],,,,5x/2x<7[16:3],,,,6,5,4,3,2b-5[8:1]/6-1[8:1],,,,
{4}2x/6x,7bv4[8:1]/3bv8[8:1],3x/7x,2b/6b,
{16}3,5,4,6,3,7,2,6,8b-4b[8:1],,,,5<1[4:1],,,,
{4}1>5[4:1],5p1[4:1],1p4[4:1],,
{16}3,3,3,,6,6,6,,
{24}1,2,3,5,6,7,1q7[4:1]/8,,,,,,
{4}7p1[4:1],1^4[4:1],4v6[8:1],,
{16}8,8,8,,1,1,1,,
{24}7,6,5,3,2,1,7/8pp4>1[4:3],,,,,,
{1}E7fh[4:3],
{16}1/8,,2,2,5V31[4:1],3,6,4,1,8,7,6,5,,,,
{32}7xh[8:1]/1x,2,3,4,5,,,,8xh[8:1]/2x,3,4,5,6,,,,1x/3x,4,5,6,7,8,1,2,7b/3b,,,,,,,,
{16}2/8,,7,7,4<8[4:1],6,3,5,8,1,2,3,4,,,,
{32}2xh[8:1]/8x,7,6,5,4,,,,1xh[8:1]/7x,6,5,4,3,,,,8x/6x,5,4,3,2,1,8,7,2b/6b,,,,,,,,
{16}6,6,5,7,3,3,4,2,5^2[8:1],5,4,6,5,,,,
{32}7xh[8:1]/1x,2,3,4,5,,,,8xh[8:1]/2x,3,4,5,6,,,,1x/3x,4,5,6,7,8,1,2,7x/3x,6,5,4,3,2,1,8,
{24}7b/A4fh[4:1]/E4fh[16:5]/E5fh[8:3]/B4fh[16:7],,,,,,,,,,,,8h[4:1],,,A6,A5,A4,A3,,,1x/8x,,,
{8}A2h[8:1]/E2h[6:1]/E3h[24:5]/B2h[4:1],,5h[8:1],,A7h[8:1]/E8h[6:1]/E7h[24:5]/B7h[4:1],,4h[8:1],,
{1}Ch[8:1],
