&title=ANiMA
&artist=xi
&first=0.04
&lv_5=14.5
&des_5=RoboCraft6254
&inote_5=
(183.5){4},,,,{1}3h[1:1],
4h[1:1],
5h[1:1],
{4}6h[1:1],4,3,2,
{1}1h[1:1],
{2}2h[2:1],3h[2:1],
4h[2:1],5h[2:1],
{4}6h[1:1],7,8,1,
{8}Cf,,,,,3,4,5,
{24}6/E4,B3,{12}B2,{24},,,,,,,,{8}7,6,5,4,
{24}3/E6,B6,{12}B7,{24},,,,,,,,7/E2,B2,{12}B3,{24},,,,,,,,2/E8,
B7,{12}B6,{24},,,,,,,,3/E6,B6,{12}B7,,,,,{4}1/8,
2/7,{16}1,8,1,8,1,8,1,8,
{4}7/2,3/6,5/4,{16}4,5,4,5,
{4}3/6,{16}3,4,3,4,2,5,2,5,1,6,1,6,
8,7,8,7,8,7,8,7,{8}8,1/6,5/2,4/3,
{4}B4/B2,B5/B7,2-5[16:1]/6-1[16:1],2/6,
{8}2/5,{16}3,4,{8}3,7/4,{16}6,5,{8}6,2/5,{16}3,4,
{8}3,7/4,{16}6,5,{8}6,2-5[16:1]/6-1[16:1],1/5,{4}6/2,
{8}7/4,{16}6,5,{8}6,2/5,{16}3,4,{8}3,7/4,{16}6,5,
{8}6,2/5,{16}3,4,{8}3,7-4[16:1]/3-8[16:1],8/4,{4}3/7,
{16}1/B7h[8:1]/E7h[16:3]/B6h[4:1],2,3,4,{8}5,{16}8/B2h[8:1]/E3h[16:3]/B3h[4:1],7,6,5,{8}4,{16}E1,E2,E3,E4,
{8}E5,{16}E1,E8,E7,E6,{8}E5,4w8[16:1],3/5,{64},B4,C,B8,{16}A8,,,3,
3,3,3,{8}3,{16}1,1,1,1,{8}1,{16}7,7,7,7,
{8}7,{16}5,5,5,5,{8}5,{16}4,6,3,7,2,8,1,1,
{32}1,2,3,4,,,,,8,7,6,5,,,,,1,2,3,4,,,,,8-4[16:1],7,6,5,4,3,2,1,
{4}8,{24}A7/B7/A3/B3,D8/E8/D4/E4,A8/B8/A4/B4,D1/E1/D5/E5,A1/B1/A5/B5,D2/E2/D6/E6,{4}B2/A2/B6/A6,{16}2-6[16:1],1,3,1,
{4}2,{16}7-3[16:1],8,6,8,{4}3/7<4[16:1],2/7>2[16:1],
4/7-3[16:1],7/3,{16}2,4,3,5,4,6,5,7,
{4}6-2[16:1],6/8-4[16:1],8/1,{16}5,3,4,2,
{4}3-7[16:1],3/1-5[16:1],{8}1/8,6,{16}5,6,5,6,
5,4,3,2,1,8,7,6,5,6,7,8,5,4,3,2,
1,1,1,1,1,1,1,1,{32}1-5[16:1],2,3,4,5,6,7,8,{4}1,
2/7,{12}3,3,3,5,5,5,7,7,7,
{8}1,{32}1/5,4/8,3/7,2/6,{4}1>4[16:1]/5<8[16:1],5p1[16:1]/1p5[16:1],1/5,
{16}8,7,8,7,3,4,3,4,2,1,2,1,5,6,5,6,
{4}5,{16}5,5,5,5,{8}5w1[16:1],6/4,{64}5,B5,C,B1,{16}A1,,,{4}3/6,
{12}2,2,2,8,8,8,6,6,6,
{8}4,{32}4/8,1/5,2/6,3/7,{4}4>1[16:1]/8<5[16:1],8q4[16:1]/4q8[16:1],4/8,
{16}5,6,5,6,2,1,2,1,3,4,3,4,8,7,8,7,
{4}8,{16}8,8,8,8,{8}8w4[16:1],7/1,{64}8,B8,C,B4,{16}A4,,,{4}8,
{12}7/1,2/6,3/5,{4}4,{16}4,3/5,2/6,1/7,
{8}8,{16}2,1,{8}3/8,{16}7,8,{8}6/1,{16}2,1,{8}3/8,4/7,
{4}5/6,{12}3/5,6/2,7/1,{4}8,{16}8,7/1,6/2,5/3,
{8}4,{16}6,5,{8}7/4,{16}3,4,{8}2/5,{16}6,5,{8}7/4,8/3,
{4}1/2,{12}1/2,3/8,4/7,{4}5/6,{16}5,6,5,6,
{8}5/6,5/6,7/8,7/8,1/2,1/2,3/4,3/4,
{4}4>8[4:1],A4/8<4[4:1],A8/4>8[4:1],A4/8<4[4:1],
{8}A8/4>8[4:1],A6,A4/8-4[4:1],A2,{16}4/A8,B8,C,B4,8/A4,1,2,3,
{8}4,4,3,3,2,2,1,1,
8,8,7,7,6,6,5,5,
4/5,4,6/3,6,5/3,3,4/6,6,
{4}4-8[1.3014##0.1635]/5-1[1.3014##0.1635],2/3,1/8,7/6,
5/4,{8}E8/E2,E7/E3,{4}E6/E4,C,
{16}E3,E1,B3,B8,B4,B7,E5,E7,E1,E7,B1,B6,B2,B5,E3,E5,
{4}C,{8}E8/E2,E7/E3,{4}E6/E4,C,
{16}E1,E7,B1,B6,B2,B5,E3,E5,E3,E1,B3,B8,B4,B7,E5,E7,
E1,E2,E3,E4,E5,E6,E7,E8,{8}5/E1,6,7,8,
{16}1/E1,E8,E7,E6,E5,E4,E3,E2,{8}4/E1,3,2,1,
{16}1,8,1,8,1,8,1,8,{4}2/7,1/8,
2/7,6/3,4-1[8:1]/5-8[8:1],4/5,
2/7,{8}1-5[8:1]/8-4[8:1],1/8,{4}1/8,3/6,
{16}3,4,2,5,3,4,2,5,3,4,2,5,1,6,8,7,
{4}6/1,{8}8-4[8:1]/1-5[8:1],8/1,{4}8/1,6/3,
{16}6,5,7,4,6,5,7,4,6,5,7,4,8,3,1,2,
1,2,1,2,1,2,1,2,{8}1,2/8,7/3,4/6,
{16}5,5,5,5,4,6,4,6,{8}5,4/6,7/3,8/2,
{16}1,2,3,4,5,6,7,8,{4}7/1-5[16:1],1/8-4[16:1],
8/3-7[16:1],3/5-1[16:1],5/1w5[16:1],{64}1,B1,C,B5,{16}A5,,,{8}4/5,
5/4,{16}3,4,3,4,{8}3,4/5,{16}6,5,6,5,
{8}6,5/4,{16}3s7[8:1],4,3,4,{2}3/6z2[8:1],
{8}1/8,1/8,{16}2,1,2,1,{8}2,1/8,{16}7,8,7,8,
{8}7,8/1,{16}1-3[8:1]*-4[8:1],5,3,7,{4}1-7[8:1]*-6[8:1],1w5[8:1],
1,{8}1,8,{16}1,8,1,8,1,8,1,8,
1,8,2,7,3,6,4,5,{32}3,4,5,6,7,8,1,2,3,4,5,6,7,8,1,2,
{8}3/6,3/5,3/4,{16}3,4,{8}2,{16}6,5,{8}7,8/1,
,1/8,7/2,3/6,4/5,5/4,{16}3,5,4,6,
{8}5,6/5,5/4,4/3,{6}3/2,2/1,1/8,
{4}8/7,{16}1,8,1,8,{8}2/7,{16}2/7,3/6,{4}4/5,
{16}1,5,1,5,1,5,1,5,2,6,2,6,2,6,2,6,
3,7,3,7,2,6,2,6,1,5,1,5,8,4,8,4,
1,5,1,5,1,5,1,5,2,5,2,5,3,5,3,5,
4,5,4,5,5,5,5,5,5,5,6,5,7,5,8,5,
{4}1,{16}1/4,2/5,3/6,4/7,{8}5/8,{32}8,7,6,5,{16}4,3,2,1,
{1}8/4w8[4:7],
E
