&title=パレットナイトフロウ
&artist=駄々子
&first=-0.07
&des=GC
&lv_5=12
&inote_5=(135){4},,,,{1}5<1[2:1],
4>8[2:1],
{4}7V51[2:1],,,4,
{1}2V48[2:1],
{4}1/7qq4[8:5],1,2,2,
3/5pp8[8:5],3,4,4,
{8}2,2,7,7,{16}1,8,1,8,1,8,1,8,
{4}2/7,{8}6/3,6-1[8:1]/3-8[8:1],,3b/6b,,,{4}1/7-4[8:1],
{8}3,2-8[8:1],,7,6,5,
{4}4<8[4:1],{8}3,3-1[8:1],,7,{4}7-4[8:1],
2-5[8:1],{8}6,7-1[8:1],,2,3,4,
{4}5V31[4:1],{8}8,7<3[4:1],{16},,,,,,,,2,
8,2,8,3,7,3,7,4,6,4,6,3,5,3,5,
2,6,2,6,1,7,1,7,2h[16:3],,,3h[16:3],,,{8}4,
5h[4:1]/2h[4:1],,,7h[4:1]/4h[4:1],,,{4}6/3,
{8}7/5,6/4,5/3,2/4w8[8:1],,4b,,,{4}3/5<8[8:1],
2,{16}1/2h[16:3],,,3h[16:3],,,{8}4,
{16}4/5h[16:3],,,6h[16:3],,,{8}7,{2}7/1-5[8:1]*-6[8:1],
{4}3>8[4:1],8-4[4:1],4<7[4:1],7-3[4:1],
3>4[2:1],{8}7,7h[8:3],,,,,{2}5-1[8:1]/6-2[8:1],
4-8[8:1]/3-7[8:1],
6<1[8:1]/5q2[8:1],3>8[8:1]/4p7[8:1],
{4}6-1[8:1],2-5[8:1],7-4[8:1],3-8[8:1],
{8}5,5,6,1/7-3[8:1],,7b/3b,,,{4}6/4>1[8:1],
5,{16}8/7h[16:3],,,6h[16:3],,,{8}5,
{16}5/4h[16:3],,,3h[16:3],,,{8}2,{2}2/8-4[8:1]*-3[8:1],
{4}6<1[4:1],1-5[4:1],5>2[4:1],2-6[4:1],
6<5[2:1],{8}2,2h[8:3],,,,,{2}8-4[8:1]/7-3[8:1],
1-5[8:1]/2-6[8:1],
7<4[8:1]/8p3[8:1],2>5[8:1]/1q6[8:1],
{4}2-5[8:1],6-1[8:1],3-8[8:1],7-4[8:1],
{8}1,1,2/8,8/2h[8:3],,5b,{4}5b,
1>4[8:1]/7<4[8:1],1/7,{16}8h[16:3],,,7h[16:3],,,{8}6V42-8[8:3],
{16},,,,,,,,7h[16:3],,,6h[16:3],,,{8}5V31-7[8:3],
{2}5,{16}6h[16:3],,,5h[16:3],,,{8}4V28-6[8:3],
{16},,,,,,,,5h[16:3],,,4h[16:3],,,{8}3,
{4}8-4[8:1]/2-6[8:1],8/2,{16}1h[16:3],,,2h[16:3],,,{8}3V57-1[8:3],
,1,{4}1>1[2:1]*V35[4:1],{16},,,,,,,,2,
,,3,,,{8}4>1[8:1],,6,{4}6,
{8}1/7h[8:3],1,1,1,,,,,3/4,
5/4,5/6>8[8:3],7h[8:3],,,,,6/5,
5/4,4/3<1[8:3],2h[8:3],,,,,2/8,
7/3,4/6<4[8:3],5h[8:3],,,,,7/1,
6/2,5/3>5[8:3],4h[8:3],{16},,,,,,1,2,
{2}7-4[8:1]/3v8[8:1],2-5[8:1]/6v1[8:1],
7<4[8:1]/4q8[8:1],2>5[8:1]/5p1[8:1],
{4}7-3[8:1],2>5-1[8:3],{2}8-6[8:1],
{8}5/3,4/6,5/7,6/8w4[8:1],,8b,,,1/7,
2/6,5/3>5[8:3],4h[4:1],,,3,3,
2/8,3/7,4/6<4[8:3],5h[4:1],,,6,6,
7/8,1/8,1/2<4[8:3],3h[4:1],,,3,3,
2/1,8/1,8/7>5[8:3],6h[8:3],{16},,,,,,8,7,
{2}6-1[8:1]/2-5[8:1],7-4[8:1]/3-8[8:1],
5<8[8:1]/1>4[8:1],5>2[8:1]/1<6[8:1],
{4}1V75[4:1],5V31[4:1],1,5,
{8}8/2,{16}3>7>3[2:1],5,{8}4,3/7,,5b,{4}5b,
{8}6h[2:1],5,4,3,2h[8:3],1,8,7V53[16:3],
,1,{4}2>7<2[2:1],7,2,
{8}8,8,7,1/6>3[8:1],,2<7[8:1],,5,
6,6,7/1,7h[8:3]/1h[8:3],,,,,3h[8:1],
{16}5,4,{8}7h[8:1],{16}5,6,{8}1h[8:1],{16}4,3,{8}8h[8:1],{16}5,6,
{8}1h[8:1],{16}3,2,{8}8h[8:1],{16}6,7,{12}4,4,4,3>8[8:1],,,4,
4,4,5<4[8:3],{24},,,,,,,,,,,,,,,,,,,{8}7/5-8[8:1],
6/4,3/5V31[16:3],,6,{4}6,
{1}4bv5<4[2:3]/3b-6[2:1],
{16},,,,,,,,,,,,,,6,6,
{1}5,
E
