&title=L'epilogue
&artist=SOUND HOLIC; 高桥菜菜
&first=1.009
&des=ホシノニャイン
&lv_6=14
&inote_6=(145)
{4},,,,
{4}1>5[8:4],,5<1[8:4],,1V35[8:4],,5-1[8:3],,1w5[8:4],,,,
{16}3b/7,,,1b/6,,,8b/3,,5b/1,,
{8}45,36,27,
{16}1h[16:3],,,7h[16:3],,,2pp5[16:5],,,,2,,6,6,,
{16}7-4[16:3],,,,7,,,1s5[16:5],,,,1,,7,7,,
{16}6-1[16:3],,,,6,,,3qq7[16:5],,,,3,,5,5,,
{16}6<1[16:3],,,,6,,,2h[16:8],,,,1,8,7,6,5,,
{16}4h[16:3],,,6h[16:3],,,3>8[16:3],,,,3,,7,7,,
{16}4pp1[16:5],,,,4,,,8-5[16:2],,,,8,,1,1,2,3,
{16}4-1[8:1]*-7[8:1],,,,4,,,,8,8,,17,,26,,35,35,,4,,35,,46,,57,,8,8b,
{32}1-5[8:1],2,3,4,5,6,7,8,
{16}1,,,7,,4h[16:2],,6,4,,13,,28,,1/7h[16:2],,
{16}5,7,,64,,75,,86,,1h[16:2]/8,,7,1,,8h[16:2]/1,,
{16}2,8,,27,,36,,45,,4h[16:2]/5,,6,4,,5h[16:2]/4,,
{16}3,5,,7,,3h[16:2],,5,3,,36,,27,,1b/8b,,
{16}2,2-4[16:1],,13,,2,,7,7-5[16:1],,86,,7,,8z4[16:5],,
{16}2,2,,3,,5,,1q5[8:2],,7,,5q1[8:2],6,,8,,
{16}7,7-3[8:1],,6,,7,,2qq5[16:6],,5,,7,7,,4,,
{16}6,6-3[8:1],,78,,6,,2,2-7[8:1],,34,,2,,6b,,
{8}54,,1-4[8:1]/5-8[8:1],48,15,,4v5[8:1]/8v1[8:1],15,
{4}4V27[16:3]/8V63[16:3],48,
{8}2V48[8:2],4,7V51[8:2]/2,5,
{8}7,,2,3,1>4[8:1],,1<6[8:1],
{8}5,1-5[8:1],,1w5[8:1],,1,,3-7[8:1]/7-3[8:1],15,
{8}37,,5-1[8:1]/8-6[8:1],27,58,,3-1[8:1]/8-4[8:1],27,
{4}3-7[8:1]/8p4[8:1],38,
{8}1-4[8:1]/5,3,1-6[8:1]/5,7,
{8}15,,1-5[8:1]/8-4[8:1],27,18,,1v6[8:1]/7v6[8:1],
{8}26,1-5[8:1]/7v5[8:1],,1v4[8:1]/7v4[8:1],,1v3[8:1]/7-3[8:1],,1b/7b,,
{16}6-8[16:1],5,6,5,6,,1,,3-1[16:1],4,3,,3,,8,,
{16}2,4,3,5,4,,7,5,6,4,5,,23,,18,,
{16}7-5[16:1],8,7,,7,,2-4[16:1],1,2,1,2,,1h[16:1]/5h[16:1],,4h[16:1]/8h[16:1],,
{16}3h[16:2]/7h[16:2],,,46,,,1-5[16:2]/5h[16:4],,,,1,,7b,,,,
{16}6,6,4,5,5,,3,3,5,4,4,,54,,76,,
{16}5,7,5,6,5,,3,4,2,4,3,4,2,,18,,
{16}1,8,2,7,1,8,2,7,4,5,3,6,4,5,3,6,
{8}1>5[8:2],1,5<1[8:2],5,1-4[16:3],1,7,7,
{16}6,5,6,5,6,,8,7,8,7,8,,78,16,25,,
{16}3,4,3,4,3,,2,1,2,1,2,,12,38,47,,
{16}6,2,8,4,6,,3,7,1,5,3,,18,27,36,,
{16}4,8,2,6,4,,1,5,3,7,1,,45,36,27,,
{16}8<6[16:1],1,8,2,8,,1>3[16:1],8,1,7,1,,54,54,54,,
{16}4>2[16:1],5,4,6,4,,5<7[16:1],4,5,3,5,,18,18,18,,
{16}2-6[8:1],1,2,3,2,,7-3[8:1],8,7,6,7,,1,1,1,,
{16}3-7[8:1],4,3,2,3,,6-2[8:1],5,6,7,6,,4,4,4,,
{16}3,4h,,3,4h,,3,4h,,3,4,3,5,3,6,,
{16}6,5h,,6,5h,,6,5h,,6,5,6,4,6,3,,
{16}2,1h,,2,1h,,2,1h,,2,1,2,8,2,7,,
{16}7,8h,,7,8h,,7,8h,,7,8,7,1,7,2,,
{16}1pp4[8:2],8,,8,1,,7,7,,6,5,7,4,8,3,,
{16}8qq5[8:2],1,,1,8,,2,2,,3,4,2,5,1,6,,
{16}7,8,,8,1,,1,2h[16:7],,1,8,7,6,5,4,,
{16}3,1,,1,7,,7,5,,5,3,,5b,3,4,2,
{4}8>3[8:2],3-7[8:2],7<4[8:2],4-8[8:2],
{4}8>3[8:2],3-7[8:2],7<4[8:2],4-8[8:2],
{8}8-5[8:2],8,5-2[8:2],5,2-7[8:2],2,7-4[8:2],7,
{8}4-1[8:2],4,1-6[8:2],1,6-3[8:2],6,3,3,
{4}1>4[8:2],4<7[8:2],7>2[8:2],2>5[8:2],
{4}5>2[8:2],2<7[8:2],7<4[8:2],4>1[8:2],
{8}1V75[8:2],1,5V31[8:2],5,1V75[8:2],1,5V31[8:2],5,
{8}1,8,7,6,
{16}5,6,7,8,
{32}1-5[8:1],8,7,6,5,4,3,2,
{16}1,8,8,7,1,,18,,8-6[16:1],1,8,,8,,4b,,
{16}2q6[8:1],2,8,1,1,,7p3[8:1],7,1,8,8,,2b,,8,,
{16}1-3[16:1],8,1,,1,,5q1[8:1],4,5,3,5,,4b,,2,,
{16}1h[16:2]/2h[16:2],,,3h[16:2]/8h[16:2],,,4h[16:4]/7-3[8:1],,,,7,,1b,,,,
{16}5-7[16:1],4,5,4,5,,4-2[16:1],5,4,5,4,,18,,18,,
{16}1,8,7,6,5h[8:4],,6,7,8,1,2,3,4,,45,,
{16}4,5,3,6,4,5,3,6,1,8,2,7,1,8,2,7,
{8}5<1[8:2],5,1>5[8:2],1,5-8[8:1],5,3,3,
{16}1-4[8:1],1,8,,1,,6,6-1[8:1],,35,,6,4,3,2,,
{16}8-5[8:1],8,1,,8,,3,3-8[8:1],,46,,3,5,6,7,,
{16}1>4[8:1],1,8,,1,,7,7-4[8:1],,28,,7,1,2,3,,
{16}8<5[8:1],8,1,,8,,2,2-5[8:1],,17,,2,8,7,6,,
{16}4-1[8:1],4,5,,4,,5,5-8[8:1],,4,,5,3,2,1,,
{16}1-4[8:1],1,8,,1,,8,8-5[8:1],,1,,8,2,3,4,,
{16}5-1[8:1],5,4,,5,,2,2,3,4,4,,56,,78,,
{16}12,,34,,45,46,,47,,48,,48,73,26,15,48,7b/3b,
E
