&title=Second Game
&artist=Tracy feat. miko
&first=-1.84
&des=The Fantasista
&lv_5=13
&inote_5=(185)
{1},,,
{8}3>6[8:11]/5,,,,,,,,
{8},,,,,,,,
{8}6<3[8:11]/4,,,,,,,,
{8},,,,,,,,
{8}4b/6V48[4:2],,3,,2,,
{8}1,,5b/3V51[4:2],,6,,7,,
{8}8,,4,5,3,6,{16}2,3,4,5,6,7,8,1,
2h[8:6]/6,,,,,,,,,,1b,,1b,,,,
8,1,,3,4,3,4,3h[16:3],,8,8,,17,,26,,
53,,,4,5,4h[8:1],,6h[16:3],,1,1,,35,,26,,
1,8,,6,5,6,5,6h[16:3],,1,1,,82,,73,,
64,,,5,4,5h[8:1],,3h[16:3],,8,8,,1-5[12:1],8,2,7,
1b,,,6,4,5,3,4h[16:3],,2,2,,35,,46,,
57,,,7,8,7h[8:1],,1h[16:3],,6,6,,25,,36,,
47,,,3,5,4,6,5h[16:3],,7,7,,64,,53,,
42,,,2,1,2h[8:1],,8h[16:3],,3,3,,7bv4[8:1]/4b>5[4:13],,,,
{4}7,,,,
,,,,
4^1[4:4],,,,
,,,,
{4}2b/5b,3,4,5,
61,2,3,4,
58,7,6,5,
{16}3,,4,,2,,5q1[16:3]*qq3[16:3],,3,,,,,,,,
{8}7-4[8:1],,1,,1-5[8:1],,6,,
6^1[8:1],,2,,2^5[8:1],,7,,
7v4[8:1],,3,,3v8[8:1],,5,,
5<1[4:1],,1>5[4:1],,5,,{16}1-5[8:1],2,3,4,
5/1b,,,,46,,,,37,,,,2/8-4[8:1],,,,
7/8b,,,,35,,,,26,,,,1v6[8:1]/7,,,,
1b/2,,,,5v2[8:1]/3,,,,5b/6,,,,7,,,,
3h[8:3],,4,,5,,6h[8:3],,5,,4,,3,,,,
5/1,,6,,78,1,2,3,4,8,7,6,5h[4:1],,,,
4,,3,,21,8,7,6,5,1,2,3,4h[4:1],,,,
7,,6,,45,3,2,1,8,5,6,7,8h[4:1],,,,
2,,3,,54,6,7,8,4,5,6,7,8,1,2,3,
4/6b,,6,,53,,3,,47,,7,,25,,2,,
5/6b,,7,,34,,2,,46,,8,,35,,1,,
8,2,8,2,7,3,7,3,6,4,6,4,5,5,5,5,
5-1[8:1],,,,5^2[8:1]*^8[8:1],,,,5w1[8:1],,,,5b,,,,
{8}7-5[8:1]/1-5[8:1],,7/1-3[8:1],,1/4-8[8:1],,4/7-5[8:1],,
2^5[8:1]*^7[8:1]/7,,2,,48,,26,,
2-4[8:1]/8-4[8:1],,2/8-6[8:1],,8/5-1[8:1],,5/2-4[8:1],,
7^4[8:1]*^2[8:1]/2,,7,,51,{32},,,,1-5[12:1],,8,,2,,7,,
{8}1b,,7-5[8:1]/4-2[8:1],,7/4-8[8:1],,1-3[8:1]/4,,
1/7-5[8:1],,3-8[8:1]/7v4[8:1],,37,,15,,
37,,2-4[8:1]/5-7[8:1],,2/5-1[8:1],,8-6[8:1]/5,,
8/2-4[8:1],,6-1[8:1]/2v5[8:1],,62,{16},,84,,,,
{8}1b-5[8:1]/2b-6[8:1],3b/8b,1b/2b,,3-8[8:1],3,7-4[8:1],7,
1-5[8:1],1,6q7[4:1],6,3,2,1-4[8:1]*-6[8:1],28,
1b,,5-8[8:1],5,2-5[8:1],2,
7-2[8:1],7,3p6[16:4],3,6<3[4:1],6,5,{16},,5-1[8:1],,,,
{8}5/2-5[8:1],,28,,1-6[8:1],4^1[8:1],1,4,
,7v4[8:1]*v5[8:1],68,7,,{16}36,,4-8[8:1],5,4,5,
4,,,,17,,,,18,,27,,3qq4[4:3]/6q7[4:3],,45,,
,,,,,,,,,,,,,,,,
3-1[8:1],,4,,3b,,4,,5-7[8:1],,4,,5b,,4,,
3-1[8:1],,4,,3b,,4,,5-7[8:1],,4,,5b,,4,,
3-1[8:1],,4,,3b,,4,,5-7[8:1],,4,,5b,,4,,
{16}4,3,2,1,8,7,6-8[8:1],5,4-2[8:1],,6b,,4b,,,,
6-8[8:1],,5,,6b,,5,,4-2[8:1],,5,,4b,,5,,
6-8[8:1]/3,,5,,6b,,5,,4-2[8:1],,5,,4b,,5,,
6-8[8:1]/3,,5,,6b,,5,,4-2[8:1]/7,,5,,4b,,5,,
{16}5,6,7,8,1,2,3-1[8:1],4,5-7[8:1],,3b,,5b,,,,
48,,,,,,,,,,,,,,,,
,,,,,,,,,,,,,,,,
,,,,,,,,,,,,,,,,
,,,,,,,,,,,,,,,,
5/3b,,,,46,,,,52,,,,74,,,,
4/3b,,2,,65,,7,,53,,1,,64,,8,,
1,7,1,7,2,6,2,6,3,5,3,5,4,4,4,4,
4-8[8:1],,5,5,4,,5,,{384}2V48[4:1],6V84[4:1],,,,,,,,,,,,,,,,,,,,,,,{16},,,,,,,
,,,,1-6[8:1],,2,,1/5-8[8:1],,4,,5/1-6[8:1],,2,,
5-8[8:1]/1,,4,,5/1>7[8:2],,2,,15,,,,8-3[8:1],,,,
8/4-1[8:1],,5,,4/8-3[8:1],,7,,8/4-1[8:1],,5,,4/8-3[8:1],,7,,
8/4-1[8:1],,5,,4-8[8:1]/8,7,6,5,4,,,,1,8,2,7,
{8}1-5[8:1],,12,,3-8[8:1],4^7[8:1],3,4,
,1p5[8:1]*v4[8:1],28,1,,{16}36,,5-1[8:1],4,5,4,
5,,,,28,,,,81,,72,,6pp5[4:3]/3p2[4:3],,54,,
,,,,,,,,,,,,,,,,
4h[4:1],,,,5h[4:1],,,,{16}6,,7,,8,,1,,
2h[8:6]/6,,,,,,,,,,1b,,1b,,,,
1,8,,3,5,4,6,5h[16:3],,7,7,,6,5,8,1,
4,3,,1,8,1h[8:1],,6h[16:3],,2,2,,4,3,5,2,
8,1,,6,4,5,3,4h[16:3],,2,2,,3,4,1,8,
5,6,,8,1,8h[8:1],,3h[16:3],,7,7,,1,8,2,7,
{8}1-5[8:1],2,8-6[8:1],7,2-4[8:1],3,5-1[8:1],6,
{8}4-2[8:1],3,8-6[8:1],7,5-1[8:1],4,6,7,
{16}1,8,1,8,2,7,2,7,3,6,3,6,4,5,4,5,
{16}2,1,,4,5,4,,36,,7,8,,1bpp3[4:4]/6bpp8[4:4],,,,,,,,,,,,,,,,,,,,,,,,,,,,,,,,,,,,,,,,,,,,,,,,,,,
