&title=オラシオン
&artist=鈴木このみ
&first=3.2
&des=里克❤️休比
&lv_5=14+
&inote_5=(167)
{32}1b,2,3,4,5,6,7,8,1,2,3,4,5,6,7,8,1
,2,3,4,5,6,7,8,1
,2,3,4,5,6,7,8,
{8}1/6bpp5[8:3],,6,4>8[4:1],,4,5,6,78,,25,
{16}6,4,6,,2,5,2,,4,3,4bpp7[8:3],,3,,4,,1>4[16:3],,,,1,,8,,7,,
5<7[8:1],,,,5qq1[8:3]/3,,,,5,,6,,8,,,,1b/2b,,3,,8,,4/6>4[8:1],,,,6,,
2qq6[8:3],,2,,4b,,,,7pp4[8:3],,,,3b,,,,2,,,,35,,4,,6,,7,,5,,3,,4<1[4:1],,,,
1,2,3,4,5,6,7,8,1-4[4:1],,,,,,
(166)
6,,
{8}6,5,7h[4:1],,,,5,5,4h[4:1],,3h[4:1],,,,4,4,2,,2h[4:1],,,,4,4,
5h[4:1],,6-4[8:1],,4-7[8:1],,,
{8}2,2<7[4:1],,
{8}7<2[2:1],6,,,2<5[2:1],1,,,5pp2[2:1],4<1[2:1],,,,,,,,,,3,4,2,
{8}1<6[4:1],,4>1[4:1],,4pp7[8:3],
{8},,2,
2,3,5,6,4>1[4:1],,
{16}8,7,6,5,
{8}4>2[8:1],,1<6[4:1],,6>3[4:1],,8,8,
7,6,3,2,4<7[4:1],,
{16}8,1,2,3,
{4}4<6[8:1],8V24[4:1],
{8}4V68[4:1],4,1,
{8}2,2<6[8:3],,
{8}7<2[2:1],7,,,
{8}2<5[8:3],1,
{8},6pp7[4:1],,,
{16}4,3,
{8}2,2-5[8:1],6,7-3[8:1],,
{8}7,8,,
{8}2h[4:1],4-1[4:1],,,,,
{8}2,3<5[8:1]*<5[8:1],,5b,
{8},6pp7[8:3],,,,1pp2[8:3],,,,
{16}4<8[4:1],,,,
{8}8>4[4:1],1,,,
{4}1v6[8:1],1b/7qq8[8:3],,3qq4[8:3],,
{16}6<3[4:1],,,,
{8}3<8[4:1],4,,,
{8}1-5[8:1],,1b,,,,2h[2:1],,,,4,,35,,6,,4,,
{8}7,7-5[8:1],,4,4-7[8:1],,8s4[4:1],8h[4:1],,,,,
{24}8b,1,2,3,4,5,6,1,2,3,4,5,
{8}6>1[4:1],,8,7,6pp4[4:1],,6,3,3<6[8:1],,2h[4:1],,1>4[8:1]*<6[8:1],,1,,
7V53[4:1],,3V17[4:1],
{16}1,,,,
{8}5-1[8:1],,56,6b>1[4:1],,1b<4[4:1],,4b>7[4:1],,1b,,
5V31[4:1],,5,6,5,4V61[4:1],,8,1,2V48[4:1],,8V25[4:1],,7,,8bw4[2:1],,,,,,,,
2,6,4,5V71[8:3],1V35[4:1],,,,,4/8pp6[8:3],,,,4,4,3pp7[8:3],2,1,,
8>5[4:1],,
{16}4,5,6,7,8,1,2,3,4,
{24}1b,2,3,4,5,6,7,8,1,2,3,4h[4:1]/6,,,,,,
{16}6,5,4,3,2,1,84,73,62,1s5[4:1],8z4[4:1],,,,,,,,,,
{16}4-2[8:1],,,,
{8}5,4-7[8:1],,,3,4-1[8:1],,,6,4-8[8:1],,,
{48},,,,,
{8}1,
{16}1b,2,3,4,5,6,7,8,
{24}1b,2,3,4,5,6,7,8,1,2,3,4,
{32}1b,2,3,4,5,6,7,8,1,2,3,4,5,6,7,8,1b,2,3,4,5,6,7,8,1,2,3,4,5,6,7,8,
{8}1b<3[4:1],,3,2,1pp5[8:3],,
{16}5,6,7,,7-3[8:1],,,,78,,,,
{8}2b-6[8:1],6b-4[8:1],
{16}2,,7,,8b-3[8:1],,,,8,,
2b<6[4:1],,,,6b>1[4:1],,,,1b<3[4:1],,,,7bqq8[4:1],,,,7b,,,,1,2,3,,,,
{8}3<5[8:1],,7,7v4[8:1],,1,,6>4[8:1],
{16}1h,,,2,,,4,,4,,,
{16}7,,,6,,
{8}6b>8[8:3],,,8b<8[2:1],,,,8b<2[4:1],,,,
{24},,,,,,
{8}1s5[4:1],1,
{24},,
{16}6-4[8:1],
{8},,3-6[8:1],,7-3[8:1],,2-7[8:1],,
{16}2,,,
{6}4,5,6h[6:1],5h[6:1],
{8}3h[8:1],
{16}4,3,6,5,4,3,6,5,4,3,6,5,4,3,
6,5,2-5[8:1],,2,,6,,,,3-8[8:1],,3,,7,,7,,4,3,7,6,4,3,7,6,4,3,7,6,4,3,6,5,
8-3[8:1],,8,,4,,,,7-4[8:1],,7,,2,,2,,5,6,2,3,5,6,2,3,6,7,3,4,6,7,3,4,
{8}8<5[8:1],,5,,3>8[8:1],,4,,6qq7[8:3],,,7>3[4:1],,,2h[4:1],
,4pp2[8:3],,,2<7[16:3],,,4,,
{16}3,4,3,4,2,,2-5[8:1],,,,6-3[8:1],,,,2-6[8:1],,,,7,,,,
{16}8,,1,,2,,3,,
{16}45,,6<1[4:1],,,,2,,,,2,,,,3<5[4:1],,
6,,,,6,,,,7,,,,7,,5,,6,,4-1[4:1],,4,,3,,2,,,,,,2q5[2:1],,2,,5,,6,,7,,8,,,,,,,,
6,,6-4[8:1],,,,6,,1h[8:3],,,,,,4,,4-7[8:1],,1,,2,,3,,8,,7,,6,,5,,
4,,1h[4:1],,,,3h[4:1],,,,5h[4:1],,,,7h[4:1],,,,
6-3[8:1],,,,1-6[8:1],,,,4-1[8:1],,,,7b,,,,
{16}3,4,3,,2,,2,,6,5,6,,7,,7,,3,5,3,,2,,2,,6,4,6,,7,,7,,
3,4,3,,25,,25,,6,5,6,,47,,47,,2,1,2,,38,,38,,7,8,7,,16,,16,,
3,4,2h[8:1],,5,,5h[8:1],,4,6,3h[8:1],,6,,
6h[8:1],,4,6,2h[8:1],,7,,7h[8:1],,3,4,1h[8:1],,8,,
{16}8,,
2,1,
{8}2b<6[4:1],,6b>2[4:1],,2b<5[4:1],,5b>8[4:1],,8b<2[4:1],,6b,,
{16}8,7,6,5,4h[16:3],,,2qq5[8:3],,,,,,,6<8[8:1],,,,6,,
{16},,34,,,,12,,7,8,,,,,1<6[8:1]/2>5[8:1],,
,,1b/2b,,,,,,,,3/4-8[8:1],,,,,,,,
{16}3-7[8:1]/1,,2,5,3,,5<8[8:1],,,,,,1-6[8:1]*-5[8:1],,
,,1b,,,,3-7[8:1]/4-7[8:1],,,,,,,,1,8-4[8:1]*-3[8:1],,,,8,,,,
{16}25,,,,36,,,,47,,,,
4,,2h[4:1]/5,,,,6,,3/7h[16:4],,,,4,,4h[16:3],,,
{24}8,7,6,5,4,3,2,1,8,7b-3[8:1]/3,,,,,,,,,
{16}1,,1>4[8:1],,,,16,,7,,7h[4:1],,,,
{24}5,4,3,2/5<8[8:1],,,2,,,
{8}35,,4>1[8:1],56,47,
{24}7,6,5,
{8}41,8>3[8:1],,87,6<1[8:1],,26,
{24}2,3,4,
{8}5,1b<4[4:1],,4b>4[8:3],,8b>3[8:1],,,,
{8}4/3qq4[2:1],,,,5qq7[2:1],,,1,1-5[8:1],,1<3[4:1],,3pp7[8:3],,,,1,1,
{16}8,7,8,7,1,,6,,6,,
{8}24,3,1b-5[8:1],8b,1/7b,6,4-1[8:1],,84,7V58[4:1],7,8,1,2>5[8:1],,25,6,7>5[4:1],,78,
{16},,8,1,2,3,6,7,8,1,
{24}5b,4,3,2,1,8,7,6,5,4,3,2,1h[4:1]/6,,,,,,
{32}6,7,8,1,2,3,4,5,6,7,8z4[2:1],1s5[2:1],2,3,4,5,6,7,8,,
{2},
{8},2,,3-8[8:1],4/3h[8:3],,,6-1[8:1],5/6h[8:3],,,2>5[8:1],2h[8:3]/8,,,7,
{16}6,5,6,5,47,,25,,2,1,2,1,37,,56,,3,5,3,5,26,,17,,8,2,8,2,46,,
{24}17,8,7,6,5,4,
{8}3b/7b-4[8:1],7,2,1,6-1[8:1]/2,6,4,3,2-5[8:1]/5,25,6,7,3>8[8:1]/8,38,
{16}8,7,6,5,1b-5[8:1]/4,,,,1,,6b<1[8:1],,,,2b-6[8:1],,,,8b>5[4:1],,,,5b<8[8:1],,,,
1,2,3,4,5/1<5[8:3],,,,,,5pp3[2:1],,,,,,,,3>5[8:3],,,,,,
4,3,2b,,,1b,,,7b,7,4b,,,3b/5b,,,2b/4b,,
{16}1b,8,7,6,5,4,8,7,6,5,4,3,2,1,
{24}5b,6,7,8,1,2,3,4,5,6,7,8,1s5[4:1],,,,,,6,,,7,,,
{8}8<4[2:1],4,,3,,2,,1,,
{16}1b-5[8:1],,,8b,,,6b,,6b,,,7b-3[8:1],,,1b,,2b<6[8:3],,,,,,6V41[8:3],,,,,,8,,,,
7>4[8:3],,,,,,4V61[8:3],,,,,,2,,,,3q5[8:5],,,,,,1<5[4:1],,,,,,,,,,,,5,,
{8}4,3,24,35,46,7,68,8,8,18,8,8,2,4,35,3,3,13,3,3,7,8,
{24}1b<2[2:1]/7b,2b/6b,3b/5b,4bpp7[2:1],,,,,,
{4},,
{24},,1,2,3,4,5,6,7,8,1,2,3,4,5<3[24:7],6<4[24:7],7>5[24:7],8,1h[8:1],,,
,,,
{8},1,8,7,6,1,8,7,5,24,1,8,7,35,1,82,7,6,5,4,3,6,5,4,2,46,5,3,1,57,46,35,2,
8,1,2,3,8,1,2,4,75,8,1,2,64,37,28,1,
{16}8,7,6,5,4,3,2,1,8b<5[8:1],,,,3b>8[8:1],,,,
4b<1[4:1],,,,1b>5[4:1],,,,5b<2[4:1],,,,2b,,,,
{16}4<7[8:1],3,2,1,4,,1,,8-3[8:1],7,6,5,8,,6,,4,3,2,1,8pp4[2:1],7,6,5,8,,5,,5,,5,,
6>3[8:1],7,8,1,6,,8,,8,7,6,5,1,2,3,4,
{24}8,1,2,3,4,5,8,1,2,3,4,5,
{32}7,8,1,2,3,4,5,6,7,8,1,2,3,4,5,6,
{8}17,3,56,8,17,4,56,8,
{16}17,,2,5,3,,46,,17,,2,5,4,,36,,
{24}2/7b,8,1,2,3,4,5,6,7,8,1,2,3,1b/4,2,3,4,5,6,7,8,1,2,3,
{32}6b,7,8,1,2,3,4,5,6,7,8,1,4b,3,2,1,8/7b,6,5,4,3,2,1,8,7,6-2[1:1],5,4,
{1}3,
{8},,,
{12}4b-6[8:1],,3b,,2b,,7b-3[8:1],,1b,
{16}7b,,,,2<4[4:1],,34,,2,,,,
{24}1,8,7,6,,,3/4<7[8:1],,,2,,,4,,,,,,1>4[8:1],,,6,,,6,7,8,
1,,,1/3-8[8:1],,,3,,,5,,,,,,1>4[8:1]/6,,,1,,,8,7,6,5,,,
5b>2[8:1],,,,,,8b<5[8:1],,,,,,1b>4[8:1]*v6[8:1],,,,,,1b,,,,,,
{8}7pp4[2:1],7,5V38[4:1],5,,,,
1>6[16:3]/7,,7V53[16:3],,7V13[4:1],,4V68[4:1],,
4bqq5[2:1],,,,,7-4[8:1],,,8,1,2b,3b,6b,7,5b-1[8:1],8b,7b,6pp4[2:1],,6,4,2,2,1,
5,36,3-8[8:1]/6,,,7,16,
{24}5,4,3,2,1,8,7b-3[8:1],,,
{8},8b>3[8:1],,4b-8[8:1],,2bV46[4:1],,
{16}6,7,8,1,2,3,4z8[2:1],5s1[2:1],6,7,8,,,,,,,,,,2,,2-5[8:1]/5,,,,,,
{8}7,3/7-3[8:1],,,4,4-1[8:1]/8,,,6,
2/6,
{16}1,2,3,4,7,,4,,
{24}1,8,7,6,5,4,2,,,5,,,1b,2,3,4,5,6,7,8,1,2,3,4,
{32}8b,7,6,5,4,3,2,1,8,7,6,5,4,3,2,1,
{24}5>2[8:1],,,7,,,5,,,,,,8<5[8:1],,,3,,,3,2,1,
8,,,8/6-1[8:1],,,6,,,4,,,,,,8<5[8:1]/3,,,8,,,1,2,3,4S,,,
4b>1[8:1],,,,,,4b,,,7b<4[8:1],,,,,,2bp6[8:1],,,,,,
6b<4[4:1],,,,,,5b-1[8:1],,,,,,5b,,,,,,
{16}8b,7,63,52,
{8}41,1,
{16}3,4,3,,6,5,6,,2,1,2,,7,7,1b,,,4b,,,2b,,2b,,,7b,,,5b,,
{24}5b,4,3,2,1,8,7,6,5,4,3,2,15,6,7,8,1,2,3,4,5,6,7,8,
{32}1b,2,3,4,5,6,7,8,1,2,3,4,5,6,7,8,1,2,3,4,5,6,7,8,16,,,,
{8}7,2>4[8:1]/8,,5-2[8:1],,1q5[8:1]*-6[8:1],,1,,
{16}4/7b-3[16:1],,,3b-6[16:1],,,2b,,2b-5[16:1],,,5b-1[16:1],,,6b,,
{16}6,7,8,1,6,7,8,1,6,7,8,1,7,8,1,2,4-7[8:1],,1/7-3[8:1],,34,,
1,1,1,,2,2,2,,5,5,
{16}51,8,7,6,1,8,7,6,1,8,7,6,1,8,7,6,
{24}4,3,2,18,7,6,5,4,3,2,1,8,72,3,4,56,7,8,1,2,3,4,5,6,
{16}2,4,3,5,2,4,3,5,2,4,3,5,2,4,3,5,
{8}8b>3[8:1],1,5b<8[8:1],6,2bq6[8:1],3,1b>7[8:3],,1,,,
{16}4pp3[2:1],,,,,,,8,,,,,1<3[8:3],,,,,,2qq5[2:1],,,,,,,,,,,,,,
{16}6,,6,7,8,1,2,3,14,2,3,4,51,8,7,6,53,2,1,8,7,6,5,4,
3,6,5,4,3,6,5,4,3,6,5,4,3,6,5,4,3,8,7,6,5,4,3,2,
{8}1,7,8z4[8:17],
{4}1s5[1:2],
