&title=Arcana Idola
&artist=浅羽ロキ
&first=0
&des=XizKahv
&lv_5=14
&inote_5=(200){1},,,,,
{1}2b<3[1:3]/7b,5h[2:1],8h[2:1],6h[2:1],
{1}5>6[1:2]/2,4h[2:1],3q5[1:1],8h[2:1],
{8}2h[4:1]/7b,,7-5[8:1],,2,3,4,3,5,,5-7[8:1],,1,,,8,
{8}2,,2-4[8:1],,7,6,5,6,4,,4h[4:1],,6,5,4,3,
{4}2q5[1:1]/7,,5,6,7,8,1,2,
{16}7b/3b,4,5,6,7,8,1,2,7,6,5,4,3,2,1,8,
{16}2,3,4,5,1,8,7,6,1,2,3,4,8,7,6,5,
{8}3/4h[2:1],,2,,,34,2,,6/5h[2:1],,7,,,56,7,,
{8}3/5h[2:1],,2,,,35,2,,46,6-4[8:1],3,6,,2,2-4[8:1],,
{8}2/6h[2:1],,5,,,46,3,,6/4h[2:1],,7,,,46,7,,3/5h[2:1],,2,,,35,2,,
{8}4/6-4[8:1],,2,2-6[8:1],,,8-4[8:1],7,8b,,
{16}3,5,3,5,3,2,1,8,4,5,6,7,8>3[4:1],,,,
{16}4,5,6,7,4,5,6,7,8,1,2,3,
{16}4h[4:1]/8,,,,7,6,5,4,1,2,3,4,8,7,6,5,
{16}2h[4:1],,,,5,3,5,3,6,4,6,4,7-3[8:1],,8,,
{4}1b/7b,
{16}2,4,2,4,3,5,3,5,
{4}4-1[8:1]*-7[8:1],4b,
{16}2,3,4,5,8,1,2,3,4,5,6,7,
{16}2b,1,3,8,4,7,5,6,8b,7,1,6,2,5,3,4,
{24}1,2,3,8,7,6,2,3,4,7,6,5,
{32}1-5[8:1],8,7,6,5,4,3,2,
{4}1b/8b,
{8}64,6V47[4:1]/4,,2,2-6[8:1],,2/8z4[4:1]*s4[4:1],,,,,,
{8}28,2V84[4:1]/8,,7,7-3[8:1],,7/1-4[8:1]*-6[8:1],,1,,3b/7b,,
{16}25,,3,4,3,,25,,
{8}2-7[8:1]/5,,2/6-3[8:1],,6/1-5[8:1],,18,,37,37,,15,1pp4[2:1]/5,,
{4}6,7,8w4[8:1],
{2}8b<1[2:3],,,1<1[2:3]*v7[8:3],,,1<1[2:3]*v6[8:3],,,8z4[1:1],,,
{1}4bq5[1:1]/5b,6q7[1:1],8q1[1:1],
{4}2h[2:1],,,
{8}4,35,2b/6h[4:1],,
{16}5,6,5,6,5,4,3,2,8,7,6,5,
{4}1h[4:1]/4b,
{16}3,1,3,1,3,4,5,6,1,2,3,4,
{6}1bp8[2:1]/5b,6h,5h,4h,3h,2h,
{24}7,6,5,4,3,2,1,8,7,6,5,4,
{32}2,3,4,5,6,7,8,1,2,3,4,5,6,7,8,1,
{4}2-5[8:1]/6-1[8:1],2b/6b,
{8}7-4[8:1],4V61[4:1],7,3,,
{16}2,3,4,5,1,2,3,4,5,6,
{4}7-4[8:1]/8-3[8:1],78,
{16}1,2,3,4,8,7,6,5,
{8}2,1>4[4:1]/8,,4qq5[2:1],5,6,7,8,1,1b<6[4:1],,
{16}5,4,3,2,5,4,3,2,1,8,7,6,
{4}5/1b>4[8:1],
{16}5,6,7,8,5,6,7,8,1,2,3,4,
{16}6b,5,6,5,6,5,6,5,6,5,7b,5,6,5,6,5,6,,
{8}78,12,34,56,,
{32}5,4,3,2,1,8,7,6,5,4,3,2,
{4}1-5[8:1]/8-4[8:1],1b/8b,
{8}3v8[8:1],8V25[4:1],3,7,,
{16}6,7,8,1,5,6,7,8,1,2,
{4}34,2-7[8:1]/6-3[8:1],2b/6b,
{8}4-8[8:1],5,4,7b,
{16},,1b/3,,,6b/8,,,2b/4,,,5b/7,,,4/8b,,2b/6b,,,,
{16}2,1,3,8,2,1,3,8,
{8}2,4b/7h[4:1],,
{16}5,6,4,7,5,6,4,7,5,4,36,27,
{8}1b/8b<3[2:1],,2,2,2,2,1b,1,18,1h[4:1]/8,,
{24}4,3,2,1,8,7,
{32}5-1[8:1]/6,4,3,2,1,8,7,6,
{4}5,
{8}8b-4[8:1]
,,1,2>5[8:1],,8,7,6v1[8:1],,1,2,3qq8[2:1],,4,5,6,
{8}7p4[2:1],,3,,,2,1,2-5[8:1]*-6[8:1],,2,,37,,1,1-4[8:1]*-6[8:1],,
{8}1b,,3,3>7[4:1],,7,6,5p4[4:1],,8,1,2pp5[2:1],,6,7,8,1<6[4:1],,
{8}2,,,3,4,5>2[8:1]*<8[8:1],,5,,1,,45,36,27,
{8}1b-5[8:1],,8,7<4[8:1],,1,2,3v8[8:1],,8,7,6pp1[2:1],,5,4,3,
{8}2q5[2:1],,6,,,7,8,7-4[8:1]*-3[8:1],,7,,62,,8,8-5[8:1]*-3[8:1],,
{8}8b,,6,6<2[4:1],,2,3,4q5[4:1],,1,8,7qq4[2:1],,3,2,1,8>3[8:1]*<5[8:1],,
{8}8,,
{8},2,2,
{32}1/2b,3,4,5,
{8},7,7,
{32}8/7b,6,5,4,
{8},1,1,
{32}1b,28,37,46,
{8}5<4[2:5],,,4,,,3,,2,,1,,,8,,,7,,,,6,,,,,
{24}5,4,3>4[2:9],2h[4:19],
