&title=雑踏、僕らの街
&artist=トゲナシトゲアリ
&first=1.005
&des=Liver
&lv_5=14
&inote_5=(171){24}
8,1,8,1,8,1,8,1,8,1,8,1,8,1,8,1,8,1,8,1,8,1,8,1,8,2,8,2,8,2,8,2,8,2,8,2,8,3,8,3,8,3,8,3,8,3,,,
(171){16}
8h[8:1]/2h[8:1],,,1h[8:1]/3h[8:1],,,2h[8:1]/4h[8:1],,,3h[8:1]/5h[8:1],,,2-6[342#8:1]/3-5[342#8:1],,23,,8-6[228#8:1]/7,,,1-5[228#8:1]/8,,,2-4[228#8:1]/1,,,32,,,2x,,1x,,
(171){16}
8b,7,6,5,4,3,2,1,84,73,26,51,8,7,6,5,8b,1,2,3,4,5,6,7,1b,4,2,3,1b,4,2,3,1b,4,2,3,8,7,6,5,4,3,26,15,84,73,62,15,8h[16:29]/4h[16:29],,,,,,,,,,,,,,,,,,,,,,,,D8/E8/D4/E4,,,,,,,,
6x,4,5,3,2<7[342#8:1],,2,,6x,4,5,3,2<7[342#8:1],,2,,5,6,4,3,6,7,3,2,7,8,2,1,8,7,6,5,4x/3x,2,1,8,4x/3x,5,6,7,4x/3x,2,1,8,7,6,5,4,5b,3,B6,4b,6,B3,5b,2,B7,4b,7,B2,5b,1,B8,,
4xpp1[1:1]/5x,,,6,,,7,,8,,,,7,,,6,,,5,,4,,,,4qq7[1:1]/3,,,2,,,1,,8,,,,1,,,2,,,3,,4,,,,4x-1[2:1]-6[2:1]/8x,,,6,,
,6,,8,,,,8,,,2,,,2,,8,,,,4v7[2:1]v2[2:1]/8,,,3,,,2,,3,,,,4,,,5,,,6,,5,,,,
4xq1[85.5#8:1],,,56,,,56,,4,,,,7<4[85.5#8:1],,,38,,,38,,7,,,,2q7[85.5#8:1],,,14,,,14,,2,,,,5-2[85.5#8:1],,,68,,,68,,5,,,,8xp5[85.5#8:1],,,61,,,72,,8,,,,3>8[85.5#8:1],,,82,,,31,,3,,,,6p3[85.5#8:1],,,84,,,15,,6,,,,1>1[85.5#16:3],,,34
,,,23,,1,,,,,,,,87,,7,6,,6,5,,5,4,,4,3,,3h[1:1],,2,,2,,1,,1,,8,7,6,5,4,,8b,,45,,4,2,,2,8,,8,6,,6,4,,4h[1:1],
,3,,2,,1,,8,,5,6,7,8,1,2,3,,
1-7[8:1],,3,,1,,1-5[8:1],,6,,1,,1-4[8:1],,2,,1,,1-6[8:1],,8,,1,,4xv7[8:1],,5x
,,4x,,4xv3[8:1],,1x,,4x,,4x,,31,,24,,75,,68,,13,,24,,7/5h[2:1],,1x,,1x,,1x,,1x,,
(171){32}
4,5,4,5,,,,,4,5,4,5,,,,,
(171){16}
6b-1[16:1]/2b-5[16:1],,,,,,8,,2,,7,1,7,,8,,7b-4[16:1]/3b-8[16:1],,,,,,1<1[16:34],,,,B8/B7,,B1,,,,B4/E4,,,,B7/B6,,,,B8/C,,,,E3,E2,E1,E8,E7/D7,,E8/A8,,,,B5/A5,,A6/B6,,A7/B7,,A8/B8,,,,
5,6,5,6,4,7,4,7,2>5[8:1]*-6[8:1],8,3,1,2b,,,,7,8,7,8,6,1,6,1,5>2[8:1]*-1[8:1],3,8,8,5b,,,,C/B1/B2/B3/B4/B5/B6/B7/B8,,,,1b>8[342#2:1]/8b<1[342#2:1],,1b/8b,,,,,,7b<8[342#2:1]/8b>7[342#2:1],,7b/8b,,,,,,1b<2[342#2:1]/2b>1[342#2:1],,1b/2b,,,,,,8b-3[16:1]/4b-7[16:1],,,,,,,,,,,,2bqq5[2:1]b*<2[2:1]b,,,,,,,,,,,,,,3,,24,,3,,46,,6,,7-3[8:1]/5-1[8:1],,,,7/5,,,,8,7,6,,2,3,4,,63,,81,,,,2-6[16:1],,8-4[16:1],,2,,8,,,,
4bx,3,4,3,5,2,5,2,4,2,5,3,4,3,2,1,8bx,1,8,1,7,2,7,2,8,2,7,1,8,7,6,5,4bx,3,4,3,5b,3,6b,3,4,3,4,3,7b,3,8b,3,4,3,4,3,1b,3,
(171){32}
2bw6[8:1]b,3,4,5,6,7,8,1,2,,,,
(171){16}
,,,,34,,4,45,,6,56,,6,67,,8,7/8>8[2:1],,8,,8,,,6,7,,1,2,,,81,,82,,73,,26,,3,37,,8,48,,5,15,,2,2p6[4:1]p2[4:1]/6,,2,,2,,,1,8,,4,3,
,,76,,54,,32,,81,,8-6[228#8:1],6,,8-2[228#8:1]
,2,,8-4[228#8:1],4,,8,4,,,,45,,4>2[228#8:1],2,,4<6[228#8:1],6,,4-8[228#8:1],8,,4,8,,,,2b-6[8:5]b,,,,2bhx[8:5],,,,,,,,,,,,
(171){256}
7bxp4[4:3]bp1[4:3]b,3xp8[4:3]p5[4:3],,,,,,,,,,,,,,,
(171){16}
,,,,,,,,,,,,,,,,,,,,,,,,,,,,,,,4,2,3,1,2,8,1,7,8,6,7,5,6,4,5,3,4,6,5,7,6,8,7,1,8,2,1,3,2,4,3,,32,,,2/1-5[228#8:1],,,1/8-4[228#8:1],,,8/7-3[228#8:1],,,76,,,12,,,2/3-7[228#8:1],,,3/4-8[228#8:1],,,4/5-1[228#8:1],,,5/6w2[228#8:1]b,,,6b,,,,E
