&title=next level
&artist=Maozon
&first=0
&des=新人
&lv_5=13+
&inote_5=(87){1},
{16}6,,6h[16:5],,2,3,4,3,6,,6h[16:5],,2,3,4,3,
{16}6,,6h[16:5],,2,3,4,3,6h[16:3],,4,3,2,45,36,36,
{16}45,,7,,4>1[8:1],5,6,5,4,,6,,5<8[8:1],4,3,4,
{16}5,,3,,4z8[4:1],5,6,5,4,,5x,6x,7x,25,25,25,
{32}3>8[8:1]/4,,,6,,,6,,,,5,,4,,,,6<1[8:1]/5,,,3,,,3,,,,4,,5,,,,
{16}3<6[16:1]/6,,8,,3/6>3[16:1],,1,,3<6[16:1]/6,,8,,3/6,,1,,
{32}7<4[8:1],,,86,,,86,,,,2,,3,,,,2>5[8:1],,,13,,,13,,,,7,,6,,,,
{16}2<7[16:1]/7,,54,,2/7>2[16:1],,45,,2<7[16:1]/7,,54,,2/7,,45,,
{16}3bx/B6/E6f/B5,,,E4f/B3/B4/5bx-7-4v3-8b[16:7],,,4bx/A5f/E6/B5/E5,,,,,,,,,,
{16}7bx/E3f/B3/B2,,,3bx-1-4v5-8b[16:7]/E5f/B4/B5,,,6bx/A3f/E4/E3/B3,,,,,,,,,,
{16}36,3,35,3,3/4h[16:3],1,1,1,63,6,64,6,6/5h[16:3],8,8,8,
{32}4,5,3,6,4,5,3,6,4,5,1,8,1,8,1,8,3,4,3,4,3,4,3,4,2,8,1,8,7b/2b,,,,
{32}6,,6,,6,,4,5,3,,3,,3,,5,4,6,,6,,6-1[16:1],,4,5,3,,45,,5b/6b,,,,
{8}8-4[16:1]/2>4[16:1],E2/B1/B2/E6/B5/B6,8<6[16:1]/2-6[16:1],E1/B1/B8/E5/B4/B5,8-4[16:1]/2>4[16:1],E2/B1/B2/E6/B5/B6,28,E1/B1/B8/E5/B4/B5/Ch[999:1],
{32}2,,2,,26,,6,5,7,,7,,73,,3,4,2,,2,,26,,6,5,7,,7,,8,,7,,
{8}1-6[16:1]/5-8[16:1],C/B2/B3,1-4[16:1]/5-2[16:1],C/B7/B6,1-6[16:1]/5-8[16:1],C/B2/B3,15,E1/B1/B8/E5/B4/B5/Ch[999:1],
{16}3b/6b,,3hb[16:2]/6hb[16:2],,,4,3,2,1-4[16:1],8,8,8,1,5,6,7,
{8}1-3[16:1]/8-3[16:1],4-8[16:1],1-5[16:1]/8,4-2[16:1],6-8[16:1]/1,4v1[16:1]*-8[16:1],6,4,
{32}7,,7,,73,,3,4,2,,2,,26,,6,5,7,,7,,73,,3,4,2,,2,,1,,2,,
{8}8-6[16:1]/4-6[16:1],3-1[16:1],8-4[16:1]/4,5-7[16:1]/3,8-3[16:1],5-2[16:1],8-5-8b[8:1],5,
{16}8b,,,,,4,3,2,1,8,8,8,1-4[16:1],,7-4[16:1],,
{16}18,,78,,3-8[16:1],4,5-8[16:1],4,34,,45,,1-4[16:1],8,7-4[16:1],8,
{16}18,,78,,2-5[16:1],1,8,1,21,,8,7,6-1[16:1],5,4-1[16:1],5,
{16}6,,4,,7-4[16:1],8,1-4[16:1],8,7,,1,,6,5,4,5h[2:1],
{16}4,4,3,3,2,2,1,1,{32}8,5,8,5,1,4,1,4,2-5[16:1],3,2,3,2,3,2,3,
{32}2b,,,,6,5,3,4,6,5,3,4,6,5,3,4,6,5,3,4,6,5,3,4,6,5,3,4,6h[8:1],,,,
{32}3,,3,,45,,7,8,7,,6,,45,,2,1,2,,3,,45,,7,8,7,,6,,45,,27,,
{32}18,,3,4,2,,2,,18,,6,5,7,,7,,18,,2,4,3,,3,,1-5[16:1]/8-4[16:1],,7,5,6,,6,,
{32}1b/8b,,,,3,4,6,5,3,4,6,5,3,4,6,5,3h[16:1],,{16}4b,5b/6b,7b/8b,1b-5[16:1]/2b-6[16:1],3b/4b,5b/6b,7b/8b,
{32}1b/2b,,,,,,,,,,,,,,,,,,,,,,,,,,1,8,27,,,,
{32}3,,2,,18,,6,5,6,,7,,18,,3,4,3,,2,,18,,6,5,6,,7,,18,,27,,
{16}4h[16:1]/5h[16:1],,6h[16:1]/3h[16:1],,4,3,2,3,4h[16:2],,5,,4q8[16:1],3,5p1[16:1],6,
{16}4>2[16:1],,5<7[16:1],,4,,5,,,18,27,,3,4,5,6,
{16}18,,34,,65,,7-4[16:1],8,3-8[16:1],4,7,,3,,,,
{16}2,6,4>2[16:1],8<6[16:1],1,5,4,8,3,7,1>3[16:1],5<7[16:1],4,8,1,5,
{16}2,,34,,56,,7-4[16:1],8,3-8[16:1]*-6[16:1],4,7,,3,,,,
{16}7h[8:1],1,3h[8:1],1,7h[16:1],1h[16:3],{32}6x,5x,6x,5x,{16}6x,3,7-4[16:1],1-6[16:1],5,3,7,1,
{16}E6/B6/B5,,B4/E4/B3,,2-6[16:1],1,7>2[16:1]*<4[16:1],8,2,,7,,3-7[16:1],4,6>3[16:1]*<1[16:1],5,
{16}3,,6,,2,6,5,4,3h[8:1],,6,3,4-1[16:1]/5-8[16:1],36,36,36,
{16}4b/5b,,27,,1>4[16:1],6,7<4[16:1]*p2[16:1],8,1,,7,,8<5[16:1],3,2>5[16:1]*q7[16:1],1,8,,2,,1-5[16:1],2,8,7,1,,6,7,8,4,4,5,
{1},E
