&title=Light Shine
&artist=Ryu☆
&first=-0.05
&des=Youmu@BUBBLEGUM DANCE
&lv_5=13+
&inote_5=(140){4},
{16}8/2,,7/3,,6/4,,5,4,3/5,,2/6,,1,7,1,7,1,,8,,7/1,,6,,5/4,,,3,4,,2/5,,4/5,,,6,5,,4/7,,5/6-2[4:1],,4,,4,,4,,5,,4,,5/3,,2,,8/1,,,7,8,,1/6,,5h[4:1]/2h[4:1],,,,,,1,2,3-7[4:1]/6,,5,,5,,5,,4,,5,,4,5,3,6,4/7,,4/7,,6/5,,6/5,,4,,5/3,,6/2,,1/7,,5/6,,3/7,,1,8,2,7,
{8}1b-5[8:1],2,1/5,6,7-3[8:1],8,7/4>8[4:1],,8<4[4:1],,4p8[4:1],,8q4[4:1],,,,8-4[8:1],7,8/4,3,2-6[8:1],1,2/5>1[4:1],,1<5[4:1],,5p1[4:1],,1q5[4:1],,,,2b-5[8:1],1,2/6,7,8-4[8:1],1,8/3>7[4:1],,7<3[4:1],,3p7[4:1],,7q3[4:1],,,,7-4[8:1],8,7/3,2,1-5[8:1],8,1/6>2[4:1],,2<6[4:1],,6p2[4:1],,2q6[4:1],,,,
{16}8,,7/1,,6/2,,5,4,3/5,,6/2,,1,7,1,7,
{8}1-3[8:1],7,1,7,8-4[8:1],2,8,2,1-5[8:1],7,1,7,8-6[8:1],2,8,2,1>4[8:1],8,7,6,5<8[8:1],4,3,2,1<6[8:1],2,3,4,5>2[8:1],6,7,8,1-3[8:1],7,1/8,7,4-8[8:1],5,4/6,5,7-5[8:1],1,7/8,1,4-8[8:1],3,4/2,3,1-4[8:1],8,7/1,6,5-8[8:1],4,3/5,2,1-6[8:1],2,3/1,4,5-2[8:1],6,7/5,8,
{16}1>4[8:1],,1,,1<6[8:1],,1,,1,,1,,1/4,2/5,3/6,4/7,5/8<5[8:1],,8,,8>3[8:1],,8,,8,,8,,8/5,7/4,6/3,5/2,1-5[8:1]/4,,1,,2-6[8:1],,2,,3,,3,,2/4,3/5,4/6,5/7,6/8-4[8:1],,8,,7-3[8:1],,7,,6,,6,,7/5,6/4,5/3,4/2,1/3-7[8:1],,4,,2-5[8:1]/3,,1,,8/2,,8,,1/4,3/8,2/7,1/6,8-4[8:1]/5,,1,,8/7-3[8:1],,6,,7/1,,1,,8/5,1/6,2/7,3/8,1-4[8:1]/4,,8,,1-6[8:1]/3,,2,,1/7,,8,,1/5,4/8,3/7,2/6,1-4[8:1]/5,,2,,1-6[8:1]/7,,8,,1/3,,2,,1/5,2/6,3/7,4/8,
{16}1/5,,8/3,7,6/2,,3,4,3/5,,2/6,,1,7,1,7,
{8}1b<6[8:1],2,1/5,4,5>2[8:1],6,7-4[8:1]/5,,7-2[8:1],,7pp3[4:1],,7<3[4:1],,,,8>3[8:1],7,8/4,5,4<7[8:1],3,2-5[8:1]/4,,2-7[8:1],,2pp6[4:1],,2<6[4:1],,,,5b>2[8:1],4,5/7,6,1<6[8:1],2,5-8[8:1]/1,,5/4-1[8:1],,4/7pp3[4:1],,2<6[4:1]/7,,,,4<7[8:1],5,4/2,3,8>3[8:1],7,4-8[8:1]/8,,4/5-1[8:1],,5/2pp6[4:1],,7>3[4:1]/2,,,,
{16}5,,6/4,,7/3,,2/8,,3/5,,2/6,,1,7,1,7,1,,8,,7/1,,6,,5/3,,3,4,3,,1/3,,2/8,,6,5,6,,6/8,,1/7-3[4:1],,1,,1,,1,,8,,1,,2/8,,3,,4/6,,5,4,6>2[4:1],,7/1,,2<6[4:1],,,,6>2[4:1],,,,2-6[4:1],,8,,8,,8,,1,,2,4,3,,2/6,,1-5[8:1],,8,2,1,,2,,8/1,,7,5,6,,7/3,,8-4[8:1],,1,7,8,,7,,1/8,,2,,3/5,,,3,2/4,,3/5,,4/6,,7/5,,6,,4,,6,4,6,,4,,6,,4,6,4,6,
{8}4b-2[8:1],5,4,5,4-1[8:1],6,4,6,4-8[8:1],7,4,7,1-4[8:1]/5-8[8:1],8/4,1/5,,7/5,6,2/4,3,8/4,6,5q1[8:1]/1q5[8:1],3,5>2[8:1]/1<6[8:1],,5V72[4:1]/1V36[4:1],,,,,,
{8}5b-7[8:1],4,5/3,4,5-8[8:1],3,5/2,3,5-1[8:1],2,5/1,2,8v5[8:1]/4v1[8:1],1/5,8/4,,2/4,1,7/5,8,7/3,6/2,5q1[8:1]/1q5[8:1],4/8,5>1[8:1]/1<5[8:1],,5pp8[8:3]/1pp4[8:3],,,,,,3b/7b,,,,,,E
