&title=Zero Talking
&artist=はるまきごはん; 初音ミク
&first=0
&des=moying
&des_5=moying
&lv_5=13+
&inote_5=(133){1},{4},,,
{24}4,,5h[1:4],3xh[1:4],,,
{1},,,,
{1}2h[1:1]/Ch[4:1],
{24}4^3-1^8[2:1],,5,{8}3h[8:5],{2},{4},
{1}7h[1:1]/5xh[4:1],
{24}5^6-8^1[8:3],,4,{8}6h[8:6],,,{8},,,{48},A3,E4,B4,B5,E6,
{8}A6,,46,,{24}6,,6,5,,5,{8}4,B6,
{8}4xh[4:1],5,{24}6,,6,5,,5,{8}4-6[8:1],3,2,,
{8}3-1[8:1]/5,,4,,{24}3,,3,4,,4,{8}5,B3,
{24}6,,6,5,,5,4,,4,5,,5,{8}6-2-4[4:1],7,8,,
{8}8,7,{24}6,,6,{8}5,4^1[16:3],5,6,5,
{8}7h[4:1],5,4h[4:1],5,6h[4:1],5,2h[4:1],4,
{8}5h[4:1],4,{24}3,,3,{8}4,5^8[16:3],4,3,4,
{4}5h[4:3],,,
{48}D8,A7,D7,,,,A3,D4,A4,,,,
{8}2x-6[8:1]/6x,3x/5,26,,{24}7,,7,5,,5,{8}4,B6,
{24}2,,2,4,,4,5,,5,7,,7,{8}1,2-5[8:1]/7,36,5,
{8}7-3[8:1],46,37,,{24}2,,2,4,,4,5,,5,6,,
6,7,,7,8,,8,1,,,2,,,{8}7v5[8:1],5V71[4:1],7V13[4:1],4x,
{4}2bh[2:1],,{8},7/B6/B5/E6/A5,,4/A2/E2/B2/E3,
{8},8-5[8:1]/4,5,4,3-1[8:1],24,5,6,
{4}7bh[2:1]/E6f/B6/B5/A6,,{8},1/B3/B4/E4/A4,,5/A7/E8/B7/E7,
{8},1-4[8:1]/5,4,5,6pp5[4:1],5,4,3,
{24}2,,2,4,,4,5,,5,6,,6,{8}7-3-5[4:1],6,8,8,
{24}7,,7,5,,5,4,,4,3,,3,{8}1-4[8:1],8,7,7,
{24}5/3x,,5h[24:19]/3xh[24:19],,,,{16},,,,{8},,,,
{1}Ch[4:3]/B1f/A1`B8`A8,
{8}3qq4[8:3],2,8,7,6-8[8:1],5,3-7[8:1],2,
{8}6V84[8:3],5,2,1,2,3,5,{24}6,,6,
{8}8v2[8:1],5,8-4[8:1],7,8,6,{24}3,,3,4,,4,
{8}5-1[8:1],6,7,8,{24}27,,27,,,,18,,6,5,,3,
{4}4bxw8b[8:1],{8}4,,2>6[4:1]/6,1,6,7,
{8}8-4-6[8:3],7,3,2,1,2,2,{24}3,,3,
{8}4-6[8:1],5,3-7[8:1],2,4,5,6,7,
{8}8-6[8:1],1-5[8:1],8-4[8:1],1,8w4[8:1],,8,,
{4}2b/6b,{24}4h,,5,3,,,4h,,6,2,,,4h,,5,3,,,
{8}37,37,{24}5h,,4,6,,,5h,,3,7,,,5h,,4,6,,,
{4}26,{24}4h,,5,3,,,4h,,6,2,,,4h,,5,3,,,
{8}37,37,{24}5h,,4,6,,,3,,3,4,,4,5qq5b[4:1],,,,,,
{1}7h[1:1],
{24}5h,,4,6h[16:10],,,{2},{4}4pp4b[4:1],
{1}2h[1:1],
{24}4h,,5,3h[24:21],,,{4},{8},,,{48}A7,E8,B8,B1,E2,A2,
{4},26,{24}3,,3,4,,4,{8}5,B3,
{24}6,,6,5,,5,4,,,3,,,{8}4-6[8:1],6,7,{48}A7,E8,B8,B1,E2,A2,
{4},37,{24}6,,6,5,,,5-1[2:1],,,,,,
{4}5bxh[4:3],,,{8},
{24}3,4,3,
{8}4-8[8:1],5,43,2,{24}7,,5,6h[8:1],,,3,,4,2h[8:1],,,
{24}1x,,2x,1,,3,8,,4,7,,5,{8}6^8[12:1],7,46,{24}2,1,2,
{24}1,,3,4,,6,{8}5,47,{24}87,,1x,6,,2,5,,3,4,,,
{24}6,,6,5,,5,4,,4,3,,3,2,,2,1,,1,{8}8^5[8:1],17,
{2}2bxh[2:1],{8},7/A5/E6/B6/B5,,4/B8/B1/E1/A1,
{8},8-5[8:1]/4,5,4,3-1[8:1],24,5,6,
{4}7bh[2:1]/E7f/B7/B6/E6/C,,{8},1/B3/B4/E4/A4,,5/A7/E8/B7/E7,
{8},1-4[8:1]/5,4,5,6p4[4:1],5,3,2,
{24}2,,2,3,,3,4,,4,5,,5,{8}6-2-4[16:3],7,8h[8:1],,
{24}7,,7,6,,6,{8}5-3[12:1],4x,2,{24}2,,2,{4}3x,
{24}46,,4h[24:19]/6h[24:19],,,,{16},,,,{8},,,,
{1}Ch[4:3]/B2/B3/E3f/D3`D7`E7`B7`B6,
{8}5b^8[8:1]/4b,6,5/4^2[8:1],3,4/7-3[8:1],6,7/1q5[8:1],8,
{8}1/7-2[8:1],6,7/4^1[8:1],5,4/6q2[8:1],5,46,{24}3,,3,
{8}1^4[8:1],2,1^6[8:1]/7,8,3/1-5[8:1],2,1/7^4[8:1],6,
{8}7/1-6[8:1],2,13,4,{24}45,,45,,,,27,,3,4,,6,
{4}5bx-1b[8:1],5^2[8:1]/6,
{8}5x/7-4[8:1],8,7/1^6[8:1],2,
{8}1/3-8[8:1],4,3/5^2[8:1],6,57,8,17,{24}6,,6,
{8}5-7[8:1],4,3-5[8:1],2,1,8,7,6,
{8}1-6b[8:1],8-5[8:1],1-4b[8:1],8-3[8:1],1-5b[8:1],8,1,,
{8}3-1[12:1]/4,2,35,{24}6,,6,{8}8^3[8:1],1,78,{24}6,,6,
{8}5^2[8:1],4,5/6^1[8:1],7,6/4p8[8:1],5,48,{24}7,,7,6,,
{24}6,5,,5,4,,4,3,,,2,,2,4,,4,5,,5,6,,,
{8}17,35,{24}7,,5,6,,,2,,4,3,,5,4,,6,5,,,
{24}1bx,2x,3x,8x,7x,6x,
2x,3x,4x,7x,6x,5x,
1x,2x,3x,8x,7x,6x,
2x,3x,4x,1x/5x,,,
{16}7,,3,4,2,,15,,37,,6,,28,,{16}3,5,
{8}4-8[8:1],3,2pp6[4:1],1,{16}7h[2:1],,,Cf,,,,,
{8}5,28,{24}3,,3,4,,,6,,6,5,,5,4pp3b[4:1],,,3x/5x,,,
{1}2h[1:1],
{24}4^3-1^8[2:1],,5,{8}3h[8:3],{2},
{4}5qq6b[4:1],{1}7h[1:1],
{24}5^6-8^1[8:3],,4,{8}6h[8:3],,,{8},5,4,3,
